<?xml version="1.0" standalone="no"?>
<!DOCTYPE svg PUBLIC "-//W3C//DTD SVG 1.1//EN" "http://www.w3.org/Graphics/SVG/1.1/DTD/svg11.dtd" >
<svg xmlns="http://www.w3.org/2000/svg">
<metadata>Generated by IcoMoon</metadata>
<defs>
<font id="lazaicon" horiz-adv-x="512">
<font-face units-per-em="512" ascent="480" descent="-32" />
<missing-glyph horiz-adv-x="512" />
<glyph unicode="&#x20;" horiz-adv-x="256" d="" />
<glyph unicode="&#xe601;" glyph-name="wizard" d="M497.504 46.496l-290.496 290.496c-4.704 4.672-10.336 7.008-16.992 7.008-6.688 0-12.352-2.336-16.992-7.008l-30.016-29.984c-4.704-4.704-7.008-10.336-7.008-17.024s2.304-12.352 7.008-16.992l290.496-290.496c4.672-4.672 10.304-7.008 16.992-7.008 6.656 0 12.32 2.336 16.992 7.008l30.016 30.016c4.672 4.672 7.008 10.304 7.008 16.992 0 6.656-2.368 12.32-7.008 16.992zM260.512 187.488l-96.512 96.512 32 32 96.512-96.512-32-32zM96.864 351.232c7.232-16.736-0.512-36.16-17.216-43.36-16.736-7.232-36.16 0.544-43.36 17.248s0.512 36.16 17.248 43.36c16.704 7.168 36.16-0.544 43.328-17.248zM129.504 192.128c16.736 7.232 36.16-0.512 43.36-17.248 7.232-16.704-0.544-36.16-17.248-43.328-16.704-7.232-36.16 0.512-43.36 17.248-7.2 16.704 0.512 36.128 17.248 43.328zM229.856 444.448c16.736 7.232 36.16-0.512 43.36-17.248 7.232-16.704-0.544-36.16-17.248-43.328-16.704-7.232-36.16 0.48-43.36 17.216s0.512 36.128 17.248 43.36zM169.664 400.448c-6.72-16.896-25.952-25.184-42.848-18.464-16.96 6.752-25.216 25.952-18.496 42.848 6.752 16.896 25.984 25.184 42.88 18.464 16.928-6.72 25.216-25.952 18.464-42.848zM80.288 264.896c16.896-6.72 25.184-25.952 18.464-42.848-6.752-16.96-25.92-25.216-42.848-18.496-16.896 6.752-25.184 25.984-18.464 42.88 6.72 16.928 25.92 25.184 42.848 18.464zM329.664 372.384c16.896-6.752 25.184-25.952 18.432-42.848-6.688-16.96-25.952-25.248-42.848-18.528-16.928 6.784-25.216 25.952-18.432 42.912 6.72 16.896 25.888 25.184 42.848 18.464z" />
<glyph unicode="&#xe602;" glyph-name="widget" d="M480 352v-256l-224-128-224 128v256l224 128 224-128zM369.568 242.592c0 6.176-2.24 11.488-6.72 16-4.512 4.448-9.824 6.688-16 6.688s-11.52-2.24-16-6.688c-4.512-4.512-6.72-9.824-6.72-16v-82.592c0-6.912-2.208-12.608-6.72-17.024-4.48-4.512-9.792-6.72-16-6.72-6.176 0-11.488 2.208-16 6.72-4.48 4.416-6.688 10.112-6.688 17.024v52.672c0 6.176-2.24 11.488-6.72 16-4.48 4.416-9.824 6.656-16 6.656s-11.52-2.24-16-6.688c-4.48-4.512-6.72-9.824-6.72-16v-52.64c0-6.912-2.208-12.608-6.688-17.024-4.512-4.512-9.824-6.72-16-6.72-6.208 0-11.52 2.208-16 6.72-4.512 4.416-6.72 10.112-6.72 17.024v82.592c0 6.176-2.208 11.488-6.72 16-4.48 4.448-9.824 6.688-16 6.688s-11.488-2.24-16-6.688c-4.48-4.512-6.72-9.824-6.72-16v-84.64c0-18.592 6.72-34.4 20.16-47.488 13.408-13.12 29.408-19.616 48-19.616 17.184 0 32.352 5.856 45.408 17.536 13.056-11.68 28.224-17.536 45.408-17.536 18.592 0 34.592 6.496 48 19.584 13.44 13.088 20.16 28.896 20.16 47.488v84.672z" />
<glyph unicode="&#xe603;" glyph-name="watch-remove" d="M280.096 154.88l48.64 84.224c1.024-4.832 1.6-9.92 1.6-15.072-0.032-32.32-21.152-59.456-50.24-69.152zM118.88 97.312l31.936 55.328c-13.728 20.416-21.76 44.96-21.76 71.392 0 70.72 57.28 128.032 128.032 128.032 2.88 0 5.536-0.672 8.352-0.832l20.32 35.2c-9.472 0.96-18.944 2.112-28.672 2.112-111.84 0-208.736-66.944-256-164.544 26.048-53.728 67.456-97.6 117.792-126.688zM183.936 224.032c0-4.096 0.576-8 1.184-11.904l46.304 80.224c-27.648-10.432-47.488-37.024-47.488-68.32zM393.696 351.616l-31.552-54.624c14.432-20.704 23.008-45.824 23.008-72.96 0-70.752-57.28-128.032-128.032-128.032-3.552 0-6.912 0.736-10.368 1.024l-20.416-35.264c10.144-1.12 20.32-2.272 30.752-2.272 111.84 0 208.736 66.976 256 164.544-26.304 54.272-68.352 98.528-119.392 127.584zM158.688 0h-64l258.624 448h64l-258.624-448z" />
<glyph unicode="&#xe604;" glyph-name="watch" d="M256 388.544c-111.84 0-208.736-66.944-256-164.544 47.264-97.568 144.16-164.544 256-164.544s208.736 66.976 256 164.544c-47.264 97.6-144.16 164.544-256 164.544zM256 96c-70.752 0-128.032 57.28-128.032 128.032 0 70.72 57.28 128.032 128.032 128.032s128.032-57.312 128.032-128.032c0-70.752-57.28-128.032-128.032-128.032zM256 297.216c40.416 0 73.216-32.8 73.216-73.184 0-40.416-32.8-73.216-73.216-73.216-40.352 0-73.152 32.8-73.152 73.216 0 40.384 32.8 73.184 73.152 73.184z" />
<glyph unicode="&#xe605;" glyph-name="warning" d="M442.4 32h-372.8c-11.424 0-22.016 5.664-27.712 15.552-5.696 9.92-5.696 21.888 0 31.808l186.4 322.72c11.424 19.808 44 19.744 55.424-0.064l186.4-322.848c5.696-9.92 5.696-21.696 0-31.584-5.728-9.92-16.288-15.584-27.712-15.584zM288 320h-64l8.608-128h46.816l8.576 128zM256 153.6c-22.976 0-41.6-18.624-41.6-41.6s18.624-41.6 41.6-41.6 41.6 18.624 41.6 41.6-18.624 41.6-41.6 41.6z" />
<glyph unicode="&#xe606;" glyph-name="volume-muted" d="M128 288h-64v-128h64l128-128v384z" />
<glyph unicode="&#xe607;" glyph-name="volume" d="M256 416v-384l-128 128h-64v128h64l128 128zM342.848 388.576c90.944-90.912 90.944-238.272 0-329.152l27.392-27.424c106.048 106.048 106.048 277.952 0 384l-27.392-27.424zM315.392 361.152l-27.392-27.424c60.64-60.64 60.64-158.816 0-219.424l27.392-27.424c75.808 75.744 75.808 198.464 0 274.272z" />
<glyph unicode="&#xe608;" glyph-name="video" d="M424.32 448h-336.64c-30.784 0-55.68-24.928-55.68-55.68v-336.64c0-30.752 24.896-55.68 55.68-55.68h336.64c30.752 0 55.68 24.928 55.68 55.68v336.64c0 30.752-24.928 55.68-55.68 55.68zM223.584 416.384h64v-64h-64v64zM95.584 416.384h64v-64h-64v64zM159.584 32.384h-64v64h64v-64zM287.584 32.384h-64v64h64v-64zM415.584 32.384h-64v64h64v-64zM416 160c0-17.664-14.336-32-32-32h-256c-17.664 0-32 14.336-32 32v128c0 17.664 14.336 32 32 32h256c17.664 0 32-14.336 32-32v-128zM415.584 352.384h-64v64h64v-64zM224 290.88l115.2-66.528-115.2-66.496v133.024z" />
<glyph unicode="&#xe609;" glyph-name="users" d="M415.744 0h-383.488c0 54.88 51.776 84.992 124.416 95.776l0.032 0.288c42.048 7.936 10.56 57.12-2.272 79.168-6.688 9.984-12.448 20.96-17.184 32.32-8.096-0.992-15.808 4.032-17.6 12.16l-7.008 31.232c-1.792 8 2.912 15.712 10.432 18.368-1.984 70.208 23.936 131.36 101.184 131.36s103.168-61.12 101.184-131.328c7.52-2.656 12.224-10.368 10.432-18.368l-7.008-31.232c-1.792-8.128-9.504-13.152-17.6-12.16-4.736-11.36-10.496-22.304-17.152-32.32-10.752-18.4-40.448-71.52-2.496-79.008 71.52-11.104 124.128-41.952 124.128-96.256zM316.864 396.576c25.152-25.888 38.944-64.416 40.288-112.064 9.024-11.040 12.96-25.888 9.664-40.576l-7.008-31.232c-3.296-14.88-13.216-26.72-26.336-32.8-3.968-7.84-8.288-15.328-12.992-22.368-8.928-15.36-12.608-25.28-14.336-31.296 56.096-10.080 97.44-31.744 120.576-62.24h84.736c0 54.304-52.64 85.152-124.128 96.256-37.984 7.456-8.256 60.608 2.496 79.008 6.656 10.016 12.416 20.928 17.152 32.32 8.096-0.992 15.808 4.032 17.6 12.16l7.008 31.232c1.792 8-2.912 15.712-10.432 18.368 2.016 70.176-23.904 131.328-101.152 131.328-35.296 0-59.392-13.152-75.52-33.696 29.024-3.68 53.472-14.912 72.384-34.4z" />
<glyph unicode="&#xe60a;" glyph-name="user-remove" d="M384 480c70.688 0 128-57.312 128-128s-57.312-128-128-128-128 57.312-128 128 57.312 128 128 128zM323.616 96.256c-37.984 7.456-8.256 60.608 2.496 79.008 4.928 7.424 8.8 15.744 12.704 24-66.176 19.584-114.816 80.128-114.816 152.736 0 16.128 3.104 31.392 7.52 46.080-57.952-11.968-78.112-66.72-76.32-128.768-7.52-2.656-12.128-10.368-10.4-18.368l7.232-31.232c1.824-8.128 9.984-13.152 18.016-12.16 4.736-11.36 11.328-22.336 18.016-32.352 12.832-22.016 35.936-71.2 3.936-79.136v-0.288c-64-10.784-127.744-40.896-127.744-95.776h383.488c0 54.304-52.608 85.152-124.128 96.256zM448 384h-128v-64h128v64z" />
<glyph unicode="&#xe60b;" glyph-name="user-add" d="M447.744 0h-383.488c0 54.88 63.744 84.992 127.744 95.776v0.288c32 7.936 8.896 57.12-3.904 79.168-6.688 9.984-13.28 20.96-18.048 32.32-8.064-0.992-16.224 4.032-18.016 12.16l-7.232 31.232c-1.76 8 2.88 15.712 10.368 18.368-1.984 70.112 23.84 131.136 100.832 131.328v-112.64h64v-64h41.856l-0.96-4.288c-1.824-8.128-9.536-13.152-17.632-12.16-4.736-11.36-10.496-22.304-17.12-32.32-10.752-18.4-40.48-71.52-2.496-79.008 71.488-11.072 124.096-41.92 124.096-96.224zM416 384v64h-64v-64h-64v-64h64v-64h64v64h64v64h-64z" />
<glyph unicode="&#xe60c;" glyph-name="user" d="M447.488 32h-383.488c0 54.88 51.776 84.992 124.416 95.776l0.032 0.288c42.048 7.936 10.56 57.12-2.272 79.168-6.688 9.984-12.448 20.96-17.184 32.32-8.096-0.992-15.808 4.032-17.6 12.16l-7.008 31.232c-1.792 8 2.912 15.712 10.432 18.368-1.984 70.208 23.936 131.36 101.184 131.36s103.168-61.12 101.184-131.328c7.52-2.656 12.224-10.368 10.432-18.368l-7.008-31.232c-1.792-8.128-9.504-13.152-17.6-12.16-4.736-11.36-10.496-22.304-17.152-32.32-10.752-18.4-40.448-71.52-2.496-79.008 71.52-11.104 124.128-41.952 124.128-96.256z" />
<glyph unicode="&#xe60d;" glyph-name="up-one-level" d="M352.128 97.28c-54.816 0-96.128 42.080-96.128 95.488v100.736l90.496-90.496 45.28 45.248-167.776 167.744-167.776-167.744 45.248-45.248 90.528 90.496v-69.504c0-127.904 64.16-191.648 176.576-191.648 10.72-0.256 78.848-0.352 78.848-0.352l0.576 63.84c0 0-72.864 1.856-95.872 1.44z" />
<glyph unicode="&#xe60e;" glyph-name="upload" d="M512 223.968v-128l-256-96-256 96v128l192 72v-48.992l-147.008-55.008 211.008-79.008 211.008 79.008-147.008 55.008v48.992l192-72zM224 351.968h-96l128 128 128-128h-96v-128h-64v128z" />
<glyph unicode="&#xe60f;" glyph-name="unlock" d="M384 447.936c-70.656 0-128-57.28-128-127.968v-31.968h-224v-256h320v256h-32v32c0 35.456 28.608 64.192 64.064 64.192s64.128-25.408 64.128-60.864l-0.192-35.328h64v31.968c0 70.688-57.344 127.968-128 127.968zM224 128h-64v64h64v-64z" />
<glyph unicode="&#xe610;" glyph-name="undo" d="M431.104 160.288c-11.776 47.872-39.52 76.48-84.704 84.48-39.68 6.976-65.888-3.904-98.4-38.176 44.032-51.552 54.976-63.328 54.976-63.328l-206.656-15.264-0.32 216.736c0 0 48.768-42.464 67.392-56.544 43.84 36.608 93.696 51.424 159.040 40.032 77.376-13.568 125.888-91.328 125.888-167.232 0-12.16-13.728-14.912-17.216-0.704z" />
<glyph unicode="&#xe611;" glyph-name="twitter" d="M460 328c0-4 0-8.352 0-12.992 0-35.328-6.688-70.496-20-105.504-13.344-35.008-32.192-67.008-56.512-96-24.352-28.992-55.84-52.512-94.496-70.496-38.688-18.016-81.344-27.008-128-27.008-58.016 0-111.68 15.648-160.992 47.008 8-0.672 16.32-0.992 24.992-0.992 48.672 0 92.32 15.008 131.008 44.992-23.328 0-43.84 6.848-61.504 20.512-17.696 13.632-30.176 31.136-37.504 52.48 6.656-1.344 13.312-2.016 20-2.016 9.312 0 18.656 0.992 28 3.008-24.672 5.344-44.832 17.664-60.48 36.992-15.712 19.328-23.52 41.344-23.52 66.016 0 0.672 0 1.344 0 2.016 14.656-8.672 30.304-12.992 47.008-12.992-31.328 20.64-47.008 49.632-47.008 86.976 0 18.656 4.992 36.352 15.008 52.992 26.016-32.672 57.824-58.656 95.488-78.016 37.664-19.328 77.824-30.016 120.512-32-2.016 8-3.008 16-3.008 24 0 29.312 10.304 54.144 31.008 74.496 20.672 20.384 45.312 30.528 74.016 30.528 30.656 0 56.32-11.008 76.992-32.992 24 4.672 46.304 12.992 67.008 24.992-8-24.672-23.328-44-46.016-58.016 20.672 2.656 40.672 8.32 60 16.992-13.984-21.312-31.328-39.648-52-54.976z" />
<glyph unicode="&#xe612;" glyph-name="tumblr" d="M487.008 455.008c16.64-16.704 24.992-36.672 24.992-60v-342.016c0-23.328-8.352-43.328-24.992-60-16.704-16.64-36.704-24.992-60-24.992h-342.016c-23.328 0-43.328 8.352-60 24.992-16.672 16.672-24.992 36.672-24.992 60v342.016c0 23.328 8.32 43.328 24.992 60 16.672 16.64 36.672 24.992 60 24.992h342.016c23.296 0 43.296-8.352 60-24.992zM366.016 123.008c-18.016-11.328-36-16.992-54.016-16.992-10.016 0-18.688 2.304-26.016 7.008-6.656 3.968-11.328 8.96-13.984 14.976-1.344 3.328-2.016 16-2.016 38.016v90.976h82.016v63.008h-81.984v81.984h-50.016c-1.984-18.656-5.984-33.824-12-45.472-5.984-11.712-13.984-21.856-24-30.528-8-6.656-21.344-12.992-40-18.976v-50.016h48v-124c0-16 1.664-28.352 4.992-36.992 3.328-8.672 9.504-16.672 18.496-24s19.648-13.152 32-17.504c12.32-4.352 24.832-6.496 37.504-6.496 14.016 0 27.168 1.504 39.488 4.512s26.144 8.16 41.504 15.488v55.008z" />
<glyph unicode="&#xe613;" glyph-name="trash" d="M408 320h-304c-8.672 0-15.84-3.2-21.504-9.504-5.664-6.336-8.16-13.824-7.488-22.496l26.016-288c0.672-8.672 4.512-16.16 11.488-22.496 6.976-6.304 14.816-9.504 23.488-9.504h240c8.672 0 16.512 3.2 23.488 9.504 7.008 6.336 10.816 13.856 11.488 22.496l26.016 288c0.672 8.672-1.856 16.16-7.488 22.496-5.664 6.304-12.832 9.504-21.504 9.504zM192 32h-48l-16 224h64v-224zM288 32h-64v224h64v-224zM368 32h-48v224h64l-16-224zM434.016 401.984c-9.344 9.344-20.672 14.016-34.016 14.016h-47.040l-5.984 40c-0.672 6.656-3.68 12.32-8.992 16.992s-11.328 7.008-17.984 7.008h-128c-6.656 0-12.672-2.336-17.984-7.008-5.344-4.672-8.352-10.336-9.024-16.992l-5.952-40h-47.040c-13.344 0-24.672-4.672-33.984-14.016-9.344-9.312-14.016-20.672-14.016-33.984v-16h384v16c0 13.312-4.672 24.672-13.984 33.984zM196 448h120l4.48-32h-128.96l4.48 32z" />
<glyph unicode="&#xe614;" glyph-name="transition" d="M32 415.488v-384l448 0.512v384l-448-0.512zM64 64v320h160l96-96-128-128 96-96h-224z" />
<glyph unicode="&#xe615;" glyph-name="toggle-right" d="M288 133.984l-128 90.016 128 90.016v-180.032zM480 448h-448v-448h448v448zM320 32h-256v384h256v-384zM352 311.328l128-87.328-128-87.328v174.656z" />
<glyph unicode="&#xe616;" glyph-name="toggle-left" d="M224 314.016l128-90.016-128-90.016v180.032zM32 0h448v448h-448v-448zM192 416h256v-384h-256v384zM160 136.672l-128 87.328 128 87.328v-174.656z" />
<glyph unicode="&#xe617;" glyph-name="time" d="M256 448c-123.712 0-224-100.288-224-224s100.288-224 224-224 224 100.288 224 224-100.288 224-224 224zM256 64c-88.352 0-160 71.648-160 160s71.648 160 160 160 160-71.648 160-160-71.648-160-160-160zM288 256h64v-64h-128v160h64v-96z" />
<glyph unicode="&#xe618;" glyph-name="text" d="M512 448h-512v-128.192h29.024c7.68 19.168 20 39.68 36.96 61.6 16.96 21.888 32.672 33.664 46.976 35.328 7.968 0.8 17.728 1.568 29.376 2.208 11.648 0.608 21.664 0.928 30.080 0.928h17.472v-354.56c0-7.776-1.632-14.496-4.832-20.224-3.232-5.664-9.696-10.176-19.36-13.568-4.704-1.696-13.6-3.104-26.624-4.288-13.024-1.12-23.168-2.016-30.336-2.688v-24.544h294.56v24.608c-8.48 0.832-18.688 2.24-30.72 4.32-12.064 2.016-20.928 3.936-26.656 5.824-9.408 3.328-15.744 7.968-18.976 13.76s-4.832 12.48-4.832 20.032v351.36h17.472c8.448 0 18.432-0.352 30.080-0.928 11.648-0.672 21.408-1.408 29.376-2.208 14.304-1.696 30.016-13.472 46.976-35.328 16.96-21.92 29.28-42.432 36.96-61.6h29.024v128.16z" />
<glyph unicode="&#xe619;" glyph-name="stumbleupon" d="M512 224c0-70.656-24.992-131.008-75.008-180.992s-110.336-75.008-180.992-75.008c-70.688 0-131.008 24.992-180.992 75.008s-75.008 110.336-75.008 180.992 24.992 131.008 75.008 180.992 110.304 75.008 180.992 75.008c70.656 0 131.008-24.992 180.992-75.008s75.008-110.336 75.008-180.992zM288 327.008v-31.008l23.008-12 40.992 12v31.008c0 23.328-9.504 44-28.512 62.016s-41.472 26.976-67.488 26.976c-26.688 0-49.344-9.344-68-28-18.688-18.656-28-41.344-28-68v-128c0-8.672-3.2-16.192-9.504-22.496-6.336-6.336-13.824-9.504-22.496-9.504s-16.192 3.168-22.496 9.504c-6.336 6.304-9.504 13.824-9.504 22.496v64h-64v-64c0-26.656 9.312-49.344 28-68 18.656-18.656 41.312-28 68-28 26.656 0 49.312 9.344 68 28 18.656 18.656 28 41.344 28 68v128c0 8.672 3.168 16.16 9.504 22.496 6.304 6.304 13.824 9.504 22.496 9.504s16.16-2.656 22.496-8c6.304-5.344 9.504-11.008 9.504-16.992zM480 192v64h-64v-64c0-8.672-3.2-16.192-9.504-22.496-6.336-6.336-13.824-9.504-22.496-9.504-9.344 0-16.992 3.488-23.008 10.496s-8.992 16.512-8.992 28.512v61.984l-40.992-12-23.008 12v-62.016c0-29.344 9.312-53.856 28-73.504 18.656-19.648 41.312-29.472 68-29.472 26.656 0 49.312 9.344 68 28 18.656 18.656 28 41.344 28 68z" />
<glyph unicode="&#xe61a;" glyph-name="straighten" d="M426.336 424.96l-426.336-114.208 85.664-319.712 426.336 114.208-85.664 319.712zM64 96v224h384v-224h-384z" />
<glyph unicode="&#xe61b;" glyph-name="stop" d="M64 416h384v-384h-384v384z" />
<glyph unicode="&#xe61c;" glyph-name="star-half" d="M384 156.992l30.016-176-158.016 83.008-158.016-83.008 30.016 176-128 124 176.992 26.016 79.008 160 79.008-160 176.992-26.016-128-124zM368 44.992l-22.016 124 91.008 88-124.992 18.016-56 112.992v-284.992l112-58.016z" />
<glyph unicode="&#xe61d;" glyph-name="star-empty" d="M384 156.992l30.016-176-158.016 83.008-158.016-83.008 30.016 176-128 124 176.992 26.016 79.008 160 79.008-160 176.992-26.016-128-124zM368 44.992l-22.016 124 91.008 88-124.992 18.016-56 112.992-56-112.992-124.992-18.016 91.008-88-22.016-124 112 58.016 112-58.016z" />
<glyph unicode="&#xe61e;" glyph-name="star-5" d="M408.192 165.504l2.048-162.848-154.24 52.288-154.24-52.288 2.048 162.848-97.376 130.528 155.488 48.352 94.080 132.96 94.048-132.96 155.488-48.352-97.344-130.528zM336.448 209.856c-4.48 9.6-10.496 17.536-18.048 23.808s-16.448 10.944-26.72 13.984c-10.208 3.104-21.088 4.64-32.64 4.64-7.424 0-14.048-0.704-19.968-2.112s-12-3.392-18.4-5.952l5.376 59.136h105.568v37.248h-144l-7.648-120.576 21.088-13.44c8.48 4.832 15.872 8.384 22.304 10.56 6.4 2.176 14.080 3.264 23.008 3.264 15.616 0 28.256-3.968 37.856-11.904s14.4-19.2 14.4-33.792c0-14.848-5.184-26.368-15.552-34.56s-23.232-12.288-38.56-12.288c-14.112 0-26.176 2.624-36.32 7.872-10.112 5.216-19.264 11.328-27.424 18.208l-20.384-28.416c9.76-8.96 21.696-16.832 35.904-23.616s32.064-10.144 53.6-10.144c12.256 0 24 1.856 35.136 5.568 11.136 3.68 21.056 9.152 29.76 16.32s15.616 16 20.736 26.496 7.68 22.4 7.68 35.712c0 13.024-2.272 24.384-6.752 33.984z" />
<glyph unicode="&#xe61f;" glyph-name="star-4" d="M410.24 2.656l-154.24 52.288-154.24-52.288 2.048 162.848-97.376 130.528 155.488 48.352 94.080 132.96 94.048-132.96 155.488-48.352-97.376-130.528 2.080-162.848zM344.736 193.536h-34.56v147.424h-51.040l-112.128-151.648v-29.984h121.76v-62.976h41.44v62.976h34.56v34.208zM268.736 258.912v-58.368h-76.8l51.424 67.968c4.384 6.656 8.704 13.184 13.056 19.584 4.384 6.368 8.576 12.768 12.672 19.2h1.92c-0.512-7.456-0.96-15.52-1.312-24.192-0.384-8.736-0.704-16.8-0.96-24.192z" />
<glyph unicode="&#xe620;" glyph-name="star-3" d="M410.208 2.656l-154.208 52.288-154.208-52.288 2.016 162.848-97.376 130.528 155.488 48.352 94.080 132.96 94.048-132.96 155.488-48.352-97.376-130.528 2.048-162.848zM337.792 184.32c-3.072 6.656-7.232 12.544-12.48 17.664s-11.36 9.376-18.432 12.864c-7.072 3.424-14.528 6.176-22.464 8.256v1.536c15.136 5.12 27.136 12.288 36.096 21.504s13.44 20.736 13.44 34.56c0 10.24-2.080 19.392-6.304 27.456s-10.144 14.848-17.696 20.352-16.576 9.632-27.072 12.448c-10.496 2.848-22.016 4.256-34.56 4.256-15.872 0-30.464-2.848-43.744-8.48-13.312-5.6-25.632-13.056-36.928-22.24l23.072-27.264c8.192 6.912 16.8 12.48 25.92 16.704 9.088 4.224 19.040 6.304 29.76 6.304 13.056 0 23.488-2.88 31.328-8.64s11.712-13.792 11.712-24c0-5.632-1.344-10.88-4.032-15.744s-6.912-9.024-12.672-12.48c-5.792-3.424-13.312-6.112-22.528-8.032-9.216-1.952-20.32-2.88-33.376-2.88v-32.288c15.104 0 27.84-0.928 38.176-2.88 10.368-1.92 18.688-4.672 24.96-8.256 6.24-3.584 10.816-7.936 13.632-13.056s4.224-10.88 4.224-17.28c0-11.488-4.928-20.544-14.784-27.072-9.888-6.528-22.336-9.792-37.44-9.792-13.312 0-25.408 2.624-36.288 7.872-10.88 5.216-20.448 11.552-28.64 19.008l-20.672-28.416c8.96-9.728 20.864-17.92 35.68-24.576 14.88-6.656 32.768-9.984 53.792-9.984 12.576 0 24.448 1.6 35.712 4.768 11.264 3.2 21.12 7.808 29.568 13.856 8.448 6.016 15.2 13.344 20.16 22.048 4.992 8.672 7.456 18.688 7.456 29.984 0 7.936-1.504 15.264-4.576 21.92z" />
<glyph unicode="&#xe621;" glyph-name="star-2" d="M410.24 2.656l-154.24 52.288-154.24-52.288 2.048 162.848-97.376 130.528 155.52 48.352 94.048 132.96 94.048-132.96 155.52-48.352-97.376-130.528 2.048-162.848zM343.552 133.984h-69.12c-6.656 0-13.952-0.32-21.888-0.928-7.936-0.672-15.488-1.216-22.656-1.76 14.048 12.8 27.328 25.216 39.744 37.248s23.104 23.776 32.064 35.136c8.96 11.392 16.064 22.656 21.312 33.824 5.248 11.136 7.872 22.048 7.872 32.8 0 11.296-1.984 21.536-5.952 30.752-3.968 9.184-9.6 17.056-16.896 23.584s-16.064 11.616-26.304 15.2c-10.24 3.552-21.632 5.376-34.176 5.376-17.92 0-33.408-3.296-46.464-9.824s-25.472-15.808-37.248-27.84l24.192-24.576c7.424 7.392 15.552 13.824 24.384 19.2s18.624 8.064 29.376 8.064c15.36 0 27.008-3.776 34.944-11.328s11.904-17.824 11.904-30.88c0-9.472-2.816-19.328-8.448-29.568s-13.76-21.28-24.384-33.024c-10.624-11.776-23.488-24.544-38.592-38.208-15.104-13.696-32.256-28.736-51.456-45.12v-25.728h177.792v37.6z" />
<glyph unicode="&#xe622;" glyph-name="star-1" d="M410.24 2.656l-154.24 52.288-154.24-52.288 2.048 162.848-97.376 130.528 155.52 48.352 94.048 132.96 94.048-132.96 155.52-48.352-97.376-130.528 2.048-162.848zM345.472 132.48h-59.904v208.128h-32.256c-8.448-4.608-17.6-8.512-27.456-11.744-9.856-3.168-21.696-5.92-35.52-8.224v-27.648h51.072v-160.512h-66.048v-36.096h170.112v36.096z" />
<glyph unicode="&#xe623;" glyph-name="star-0" d="M410.24 2.656l-154.24 52.288-154.24-52.288 2.048 162.848-97.376 130.528 155.52 48.352 94.048 132.96 94.048-132.96 155.52-48.352-97.376-130.528 2.048-162.848zM322.24 313.536c-16.256 21.12-38.336 31.68-66.24 31.68s-49.984-10.56-66.24-31.68c-16.256-21.12-24.384-52.416-24.384-93.92 0-41.216 8.128-72.8 24.384-94.848 16.256-22.016 38.336-32.992 66.24-32.992s49.984 11.008 66.24 32.992c16.256 22.016 24.384 53.632 24.384 94.848 0 41.504-8.128 72.8-24.384 93.92zM292.288 147.84c-4.48-7.424-9.856-12.864-16.128-16.352-6.272-3.424-12.992-5.184-20.16-5.184-7.424 0-14.208 1.76-20.352 5.184-6.144 3.456-11.456 8.896-15.936 16.352-4.48 7.392-8 17.056-10.56 28.96s-3.84 26.176-3.84 42.816c0 16.672 1.28 30.784 3.84 42.432s6.080 21.056 10.56 28.224c4.48 7.2 9.792 12.384 15.936 15.552s12.928 4.832 20.352 4.832c7.168 0 13.888-1.632 20.16-4.8 6.272-3.2 11.648-8.384 16.128-15.552s8-16.576 10.56-28.224 3.84-25.792 3.84-42.432c0-16.64-1.28-30.912-3.84-42.816s-6.080-21.568-10.56-28.992zM274.816 241.152c-5.12 4.832-11.392 7.296-18.816 7.296s-13.696-2.432-18.816-7.296c-5.12-4.864-7.68-11.52-7.68-19.968 0-8.48 2.56-15.136 7.68-19.968 5.12-4.864 11.392-7.296 18.816-7.296s13.696 2.432 18.816 7.328c5.12 4.832 7.68 11.488 7.68 19.968 0 8.416-2.56 15.072-7.68 19.936z" />
<glyph unicode="&#xe624;" glyph-name="star" d="M384 156.992l30.016-176-158.016 83.008-158.016-83.008 30.016 176-128 124 176.992 26.016 79.008 160 79.008-160 176.992-26.016-128-124z" />
<glyph unicode="&#xe625;" glyph-name="smartphone" d="M402.016 465.984c9.312-9.312 13.984-20.672 13.984-33.984v-416c0-13.344-4.672-24.672-14.016-34.016-9.312-9.312-20.64-13.984-33.984-13.984h-224c-13.344 0-24.672 4.672-34.016 14.016-9.312 9.312-13.984 20.64-13.984 33.984v416c0 13.312 4.672 24.672 14.016 34.016 9.312 9.312 20.64 13.984 33.984 13.984h224c13.344 0 24.672-4.672 34.016-14.016zM384 416h-256v-320h256v320zM288 32c0 8.672-3.168 16.16-9.504 22.496-6.336 6.304-13.824 9.504-22.496 9.504s-16.16-3.2-22.496-9.504c-6.336-6.336-9.504-13.824-9.504-22.496s3.168-16.192 9.504-22.496c6.336-6.336 13.824-9.504 22.496-9.504s16.16 3.168 22.496 9.504c6.336 6.304 9.504 13.824 9.504 22.496z" />
<glyph unicode="&#xe626;" glyph-name="slideshow" d="M480 399.264c0 26.912-21.824 48.736-48.736 48.736h-350.528c-26.912 0-48.736-21.824-48.736-48.736v-350.496c0-26.944 21.824-48.768 48.736-48.768h350.496c26.944 0 48.768 21.824 48.768 48.736v350.528zM192 121.472v203.52l182.528-101.76-182.528-101.76z" />
<glyph unicode="&#xe627;" glyph-name="slide-page" d="M87.68 448h336.64c30.752 0 55.68-24.928 55.68-55.68v-336.64c0-30.72-24.928-55.68-55.68-55.68h-336.64c-30.784 0-55.68 24.928-55.68 55.68v336.64c0 30.752 24.896 55.68 55.68 55.68zM414.016 384h-320v-224h320v224zM414.016 96h-320v-32h320v32z" />
<glyph unicode="&#xe628;" glyph-name="skin-settings" d="M363.552 136.832c-18.72-11.712-43.36-6.016-55.072 12.672-11.68 18.816-5.952 43.424 12.8 55.040 18.688 11.776 43.36 6.048 55.008-12.672 11.712-18.816 6.016-43.296-12.736-55.040zM496.032 149.44c2.496 17.824 1.952 36.16-1.824 54.176l-60.992 4.832c-4.48 11.232-10.944 21.632-19.104 30.528l22.464 56.864c-7.392 5.792-15.904 11.36-24.416 15.424 8.288 12.864 18.496 24.288 28.288 36-18.336 21.952-36.864 42.464-60.192 59.328-8.576-7.872-75.776-70.688-87.168-31.424-7.008 24.128 1.312 52.416 1.76 69.76-38.624 4.896-76.704 3.136-115.36 0 1.344-17.792 11.488-58.624 3.648-74.976-3.264-25.376-69.792 28.672-77.792 35.808-23.008-16.48-40.992-36.8-58.912-58.432 69.152-82.816 76.928-187.36 0.032-269.28 18.368-21.984 36.832-42.464 60.192-59.328 28.544 27.136 62.912 45.824 101.984 52.352l34.848-70.624 16.8 34.016c8.608-4.48 22.144-11.040 29.984-13.6l34.592 50.464c11.872-1.76 24.128-1.376 36.064 1.216l38.016-47.936c16.896 6.88 32.352 16.672 46.048 28.704l-26.368 55.296c7.616 9.6 13.312 20.48 16.96 31.744l60.448 9.088zM215.616 105.024c-40.672-5.216-77.344-20.384-109.824-45.312-6.432 5.792-12.224 11.584-17.44 17.44 62.016 79.232 62.016 191.808 0 271.040 5.216 5.824 11.008 11.648 17.44 17.44 21.632-16.832 90.464-63.488 104.224-13.696 6.368 16.992 1.504 46.24 1.504 64.288 16.096 0.288 31.584 1.12 47.712 0 0.448-22.208-4.064-52.416 11.296-70.624 29.888-34.24 84.864-4.096 110.56 19.168 6.4-5.216 12.256-10.752 17.472-16.576-18.688-23.872-25.696-54.432-44.544-77.28-11.808 1.824-24.032 1.376-36-1.152l-38.016 47.936c-16.864-6.88-32.48-16.672-46.048-28.8l26.336-55.232c-7.552-9.6-13.312-20.352-16.928-31.776l-60.48-9.088c-2.464-17.76-1.984-36.096 1.792-54.176l60.992-4.704c3.84-9.536 9.024-18.336 15.584-26.304l-17.792-34.784-16.544 33.088-11.296-0.896z" />
<glyph unicode="&#xe629;" glyph-name="skin" d="M256 0l-34.848 70.624c-34.912-5.856-65.696-20.384-92.416-43.616l-9.568-8.704-10.464 7.84c-15.68 12.224-29.376 25.888-40.992 40.992l-8.704 10.464 8.704 9.6c31.936 35.968 47.968 77.664 47.968 125.056 0 47.328-16.032 88.704-47.968 124.192l-8.704 10.432 8.704 10.464c11.616 15.136 25.312 28.736 40.992 40.992l9.6 6.976 9.568-7.84c17.44-13.408 30.656-22.56 39.648-27.488 9.024-4.928 17.568-7.424 25.696-7.424 3.488 0 6.688 2.336 9.632 6.976 1.12 2.336 2.272 4.96 3.488 7.84v67.136l13.952 1.76c9.248 1.088 21.152 1.728 35.712 1.728 15.68 0 27.872-0.64 36.608-1.76l14.816-1.76-1.76-69.76c0-4.032 0.864-6.976 2.624-8.672 1.76-1.76 5.824-2.624 12.256-2.624 9.824 0 18.816 2.048 27.008 6.080 8.096 4.096 20.032 13.376 35.712 27.936l9.568 8.704 10.464-7.84c15.68-12.256 29.344-25.888 40.992-40.992l8.704-10.464-8.704-10.432c-31.968-35.456-47.968-76.832-47.968-124.192 0-47.392 16-89.088 47.968-125.056l8.704-9.6-8.704-10.464c-11.648-15.136-25.312-28.768-40.992-40.992l-10.464-7.84-9.568 8.704c-26.752 23.264-57.504 37.792-92.416 43.616l-34.848-70.592zM272.576 105.472l11.328-0.864c40.672-5.216 77.312-20.384 109.824-45.312 6.4 5.792 12.224 11.584 17.44 17.44-31.36 40.064-47.040 85.248-47.040 135.52 0 50.24 15.648 95.424 47.040 135.488-5.216 5.824-11.040 11.328-17.44 16.576-12.192-11.040-22.912-18.912-32.224-23.52-12.192-6.368-25.888-9.568-40.928-9.568-16.32 0-28.512 4.608-36.672 13.952-6.368 7.552-9.6 17.408-9.6 29.6l0.864 41.024c-7.584 0.512-13.952 0.832-19.168 0.832s-11.328-0.32-18.272-0.864v-42.752c-1.184-6.976-3.808-13.632-7.84-20.032-8.736-15.072-20.928-22.656-36.672-22.656-12.192 0-23.808 2.752-34.848 8.288-11.072 5.472-24.416 14.368-40.064 26.56-6.432-5.792-12.224-11.616-17.44-17.44 31.36-40.064 47.040-85.248 47.040-135.488 0-50.272-15.648-95.456-47.040-135.52 5.216-5.856 11.008-11.648 17.44-17.44 32.48 24.928 69.12 40.096 109.824 45.312l11.328 0.864 16.544-33.088 16.576 33.088z" />
<glyph unicode="&#xe62a;" glyph-name="site" horiz-adv-x="544" d="M480 160v64h-192v64h64v160h-160v-160h64v-64h-192v-64h-64v-160h160v160h-64v32h160v-32h-64v-160h160v160h-64v32h160v-32h-64v-160h160v160z" />
<glyph unicode="&#xe62b;" glyph-name="sign-out" d="M320 32v128h-128v128h128v128l192-192-192-192zM32 416v-384h224v64h-160v256h160v64h-224z" />
<glyph unicode="&#xe62c;" glyph-name="sign-in" d="M128 32v128h-128v128h128v128l192-192-192-192zM192 416l64-64h160v-256h-160l-64-64h288v384h-288z" />
<glyph unicode="&#xe62d;" glyph-name="shuffle" d="M352 240v80c0 0-31.488 0-51.008 0-12.48 0-20.992-6.016-26.56-17.248-0.256-0.544-84.48-146.368-119.616-207.168-9.248-16.032-31.808-31.584-51.296-31.584s-103.52 0-103.52 0v64c0 0 74.496 0 86.016 0s16.832 5.6 22.272 15.040c26.752 46.496 107.36 186.432 120.416 208.512 15.744 26.56 34.304 32.448 60.8 32.448 22.496 0 62.496 0 62.496 0v80l147.2-112-147.2-112zM108.288 308.96c6.336-11.008 15.744-27.136 26.528-45.472l37.92 65.696c-6.688 11.712-12.832 22.464-17.92 31.232-9.248 16.032-31.808 23.584-51.296 23.584s-103.52 0-103.52 0v-64c0 0 74.496 0 86.016 0s16.832-1.6 22.272-11.040zM499.2 112l-147.2 112v-96c0 0-31.488 0-51.008 0-12.512 0-20.992 10.016-26.592 21.248-0.064 0.192-9.152 16.384-22.464 40.032l-36.256-62.816c6.048-10.208 10.688-18.016 13.056-22.016 15.712-26.56 34.272-40.448 60.768-40.448 22.496 0 62.496 0 62.496 0v-64l147.2 112z" />
<glyph unicode="&#xe62e;" glyph-name="menu-light" d="M480 416v-32h-448v32h448zM32 224h448v32h-448v-32zM32 64h448v32h-448v-32z" />
<glyph unicode="&#xe62f;" glyph-name="shopping-cart" d="M464 432c-11.68 0-21.504-6.624-27.104-16h-46.4l-15.488-64h-311.008l43.488-160 220.512-32-7.744-32h-144.256c-26.496 0-48-21.504-48-48s21.504-48 48-48 48 21.504 48 48c0 5.632-1.152 10.976-2.944 16h69.888c-1.792-5.024-2.944-10.368-2.944-16 0-26.496 21.504-48 48-48s48 21.504 48 48c0 20.672-13.184 38.176-31.552 44.928l63.296 259.072h21.152c5.6-9.376 15.392-16 27.104-16 17.664 0 32 14.336 32 32s-14.336 32-32 32z" />
<glyph unicode="&#xe630;" glyph-name="sharpen" d="M512 406.848c0 40.416-32.736 73.152-73.152 73.152h-365.696c-40.416 0-73.152-32.736-73.152-73.152v-365.696c0-40.416 32.736-73.152 73.152-73.152h365.728c40.384 0 73.12 32.736 73.12 73.152v365.696zM256 64l-144 288h288l-144-288z" />
<glyph unicode="&#xe631;" glyph-name="share" d="M416 32h-320c-35.328 0-64 28.64-64 64v256c0 35.328 28.672 64 64 64h184.448c-22.944-9.6-32.16-16.576-50.528-31.36-19.072-0.64-131.008-0.384-131.008-0.384-19.296 0-34.944-15.808-34.944-35.264v-250.016c0-19.488 15.648-35.296 34.944-35.296h314.176c19.296 0 34.912 15.808 34.912 35.296v116.256l32 24.256v-143.488c0-35.36-28.672-64-64-64zM352 287.008c0 0-37.184 1.344-80.832-13.088-41.216-13.632-60.064-31.616-83.52-62.208-8.992-11.776-12.736-1.952-10.208 7.936 15.040 59.232 34.88 95.36 80.544 129.92 46.624 35.328 94.016 35.648 94.016 35.648v73.216l160-122.432-160-122.016v73.024z" />
<glyph unicode="&#xe632;" glyph-name="settings" d="M480 192v64l-65.92 9.408c-3.84 14.624-9.6 28.32-17.056 41.024l40 53.312-45.248 45.28-53.344-40c-12.704 7.456-26.432 13.216-41.024 17.024l-9.408 65.952h-64l-9.408-65.952c-14.592-3.808-28.32-9.568-41.024-17.024l-53.344 40-45.248-45.28 40-53.312c-7.456-12.704-13.216-26.4-17.056-41.024l-65.92-9.408v-64l65.92-9.408c3.84-14.624 9.6-28.32 17.056-41.024l-40-53.312 45.248-45.28 53.344 40c12.704-7.424 26.4-13.216 40.992-17.024l9.44-65.952h64l9.408 65.952c14.592 3.808 28.288 9.6 40.992 17.024l53.344-40 45.248 45.28-40 53.312c7.456 12.704 13.248 26.4 17.056 41.024l65.952 9.408zM256 144c-44.16 0-80 35.808-80 80s35.84 80 80 80 80-35.808 80-80-35.84-80-80-80z" />
<glyph unicode="&#xe633;" glyph-name="server" d="M320 64v-32h160v-32h-160v-32h-128v32h-160v32h160v32h32v64h-160v320h384v-320h-160v-64h32zM320 288v128h-224v-128h224zM192 320h-64v64h64v-64zM288 320h-64v64h64v-64z" />
<glyph unicode="&#xe634;" glyph-name="search" d="M463.2 84.672l-85.568 85.568c14.208 25.408 22.368 54.592 22.368 85.76 0 97.184-78.784 176-176 176s-176-78.816-176-176 78.784-176 176-176c31.168 0 60.384 8.16 85.76 22.368l85.568-85.568 67.872 67.872zM96 256c0 70.688 57.312 128 128 128s128-57.312 128-128-57.312-128-128-128-128 57.312-128 128z" />
<glyph unicode="&#xe635;" glyph-name="rss" d="M206.112 412.576c55.392-23.616 103.104-55.392 143.072-95.36 39.936-40 71.744-87.68 95.36-143.072 23.648-55.424 35.456-113.504 35.456-174.144h-85.76c0 65.344-16.192 125.824-48.576 181.568-32.352 55.712-76.416 99.744-132.096 132.128-55.712 32.352-116.256 48.544-181.568 48.544v85.76c60.672 0 118.688-11.808 174.112-35.424zM180.32 255.936c45.184-26.528 81.056-62.4 107.616-107.616 26.528-45.248 39.808-94.688 39.808-148.32h-86.624c0 58.336-20.448 107.872-61.248 148.736-40.832 40.864-90.112 61.248-147.872 61.248v85.76c53.664 0 103.104-13.312 148.32-39.808zM151.008 59.936c0-16.64-5.856-30.624-17.504-42.016-11.68-11.36-25.696-17.056-42.016-17.056-16.352 0-30.336 5.696-42.016 17.056-11.648 11.392-17.472 25.408-17.472 42.016s5.824 30.784 17.504 42.432c11.648 11.616 25.664 17.504 42.016 17.504 16.32 0 30.304-5.888 42.016-17.504 11.616-11.648 17.472-25.792 17.472-42.432z" />
<glyph unicode="&#xe636;" glyph-name="rotate-right" d="M64 30.304v384h128v-32h-96v-320h256v32h32v-64h-320zM223.424 480c106.688 0 203.168-86.432 203.264-193.088l85.888 0.16-128.928-150.432-128.512 149.92 85.632 0.192c0 59.2-57.888 107.136-116.992 107.296v85.76c-0.032 0-0.352-20.32-0.352 0.192z" />
<glyph unicode="&#xe637;" glyph-name="rotate-left" d="M128 30.304v64h32v-32h256v320h-96v32h128v-384h-320zM288.256 479.808v-85.792c-59.136-0.128-116.992-48.064-116.992-107.264v0l85.632-0.192-128.512-149.92-128.928 150.432 85.888-0.16c0.064 106.656 96.544 193.088 203.232 193.088 0-20.512-0.32-0.192-0.32-0.192z" />
<glyph unicode="&#xe638;" glyph-name="resize-handle" d="M219.936 0h-53.312l313.376 313.376v-53.312l-260.064-260.064zM480 448h-25.376l-422.624-422.624v-25.376h27.968l420.032 420.032v27.968zM480 100.032v53.344l-153.376-153.376h53.344l100.032 100.032z" />
<glyph unicode="&#xe639;" glyph-name="remove" d="M256 448c123.712 0 224-100.288 224-224 0-123.68-100.288-224-224-224s-224 100.32-224 224c0 123.712 100.288 224 224 224zM323.872 337.12l-67.872-67.872-67.872 67.872-45.248-45.248 67.872-67.872-67.872-67.872 45.248-45.248 67.872 67.872 67.872-67.872 45.248 45.248-67.872 67.872 67.872 67.872-45.248 45.248z" />
<glyph unicode="&#xe63a;" glyph-name="refresh" d="M448 256v191.008l-73.024-73.024c-32.768 26.016-73.888 42.016-118.976 42.016-106.048 0-192-85.984-192-192s85.952-192 192-192c80.064 0 148.64 49.056 177.44 118.688l-59.296 24.16c-19.264-46.272-64.864-78.848-118.144-78.848-70.688 0-128 57.312-128 128s57.312 128 128 128c27.424 0 52.736-8.736 73.536-23.456l-72.544-72.544h191.008z" />
<glyph unicode="&#xe63b;" glyph-name="redo" d="M95.68 161.024c0 75.872 48.512 153.664 125.888 167.232 65.344 11.392 115.2-3.424 159.040-40.032 18.624 14.048 67.392 56.512 67.392 56.512l-0.32-216.736-206.656 15.264c0 0 10.944 11.776 54.976 63.328-32.512 34.272-58.72 45.152-98.368 38.144-45.184-8-72.928-36.608-84.704-84.48-3.52-14.176-17.248-11.424-17.248 0.768z" />
<glyph unicode="&#xe63c;" glyph-name="reddit" d="M501.504 252.992c-7.008-10.688-16.192-18.656-27.488-24 4-12 5.984-24.32 5.984-36.992 0-44-21.856-81.664-65.504-112.992-43.68-31.328-96.48-47.008-158.496-47.008s-114.848 15.68-158.496 47.008c-43.68 31.328-65.504 68.992-65.504 112.992 0 12.672 2.016 24.992 6.016 36.992-11.328 5.344-20.512 13.312-27.488 24-7.040 10.656-10.528 22.336-10.528 35.008 0 18.016 6.144 33.152 18.496 45.504 12.32 12.352 27.52 18.496 45.504 18.496 25.312 0 44-11.008 56-32.992 34.016 18.656 72 29.344 114.016 32l52 116.992c4 10.016 11.328 13.312 22.016 10.016l82.016-23.008c8.608 16.64 22.624 24.992 41.952 24.992 13.312 0 24.672-4.672 34.016-14.016 9.312-9.312 13.984-20.64 13.984-33.984s-4.672-24.672-14.016-34.016c-9.312-9.312-20.672-13.984-33.984-13.984-10.016 0-19.2 3.008-27.488 8.992-8.352 6.016-14.208 13.664-17.504 23.008l-72.992 20.992-39.008-85.984c43.328-2.656 82.304-13.344 116.992-32 12 21.984 30.656 32.992 56 32.992 18.016 0 33.152-6.144 45.504-18.496 12.32-12.352 18.496-27.52 18.496-45.504 0-12.672-3.488-24.352-10.496-35.008zM52 257.984c10.016 16 23.648 30.656 40.992 44-5.984 12-15.68 18.016-28.992 18.016-8.672 0-16.192-3.2-22.496-9.504-6.336-6.336-9.504-13.824-9.504-22.496 0-14.656 6.656-24.672 20-30.016zM442.016 192c0 34.016-18.176 62.848-54.496 86.496-36.352 23.648-80.192 35.488-131.52 35.488s-95.2-11.84-131.488-35.488c-36.352-23.648-54.496-52.512-54.496-86.496s18.144-62.848 54.496-86.496c36.288-23.648 80.16-35.52 131.488-35.52s95.168 11.84 131.488 35.488c36.32 23.68 54.528 52.512 54.528 86.528zM160 256c8.672 0 16.16-3.2 22.496-9.504 6.304-6.336 9.504-13.824 9.504-22.496s-3.2-16.192-9.504-22.496c-6.336-6.336-13.824-9.504-22.496-9.504s-16.192 3.168-22.496 9.504c-6.336 6.304-9.504 13.824-9.504 22.496s3.168 16.16 9.504 22.496c6.304 6.304 13.824 9.504 22.496 9.504zM256 133.984c-25.344 0-47.328 7.328-66.016 22.016-4 2.656-8.512 3.808-13.504 3.488-4.992-0.352-9.184-2.656-12.512-7.008-3.296-4.32-4.64-8.992-3.968-13.984s3.008-9.184 7.008-12.512c25.312-20 55.008-29.984 88.992-29.984s63.648 10.016 88.992 30.016c4 3.328 6.304 7.488 7.008 12.512 0.672 4.992-0.672 9.664-4 14.016s-7.488 6.656-12.512 7.008c-4.992 0.32-9.504-0.832-13.504-3.488-18.656-14.752-40.672-22.080-65.984-22.080zM352 256c8.672 0 16.16-3.2 22.496-9.504 6.304-6.336 9.504-13.824 9.504-22.496s-3.2-16.192-9.504-22.496c-6.336-6.336-13.824-9.504-22.496-9.504s-16.192 3.168-22.496 9.504c-6.336 6.304-9.504 13.824-9.504 22.496s3.168 16.16 9.504 22.496c6.304 6.304 13.824 9.504 22.496 9.504zM414.016 432c0-4.672 1.824-8.832 5.504-12.512 3.648-3.648 7.808-5.504 12.512-5.504 4.672 0 8.8 1.856 12.512 5.504 3.648 3.648 5.504 7.808 5.504 12.512 0 4.672-1.856 8.8-5.504 12.512-3.68 3.648-7.84 5.504-12.512 5.504s-8.832-1.856-12.512-5.504c-3.712-3.712-5.504-7.84-5.504-12.512zM480 288c0 8.672-3.2 16.16-9.504 22.496-6.336 6.304-13.824 9.504-22.496 9.504-13.344 0-23.008-6.016-28.992-18.016 17.312-13.344 31.008-28 40.992-44 13.312 5.344 20 15.36 20 30.016z" />
<glyph unicode="&#xe63d;" glyph-name="radio-unchecked" d="M448 224c0-106.048-85.952-192-192-192s-192 85.952-192 192 85.952 192 192 192 192-85.952 192-192zM256 384c-88.352 0-160-71.648-160-160s71.648-160 160-160 160 71.648 160 160-71.648 160-160 160z" />
<glyph unicode="&#xe63e;" glyph-name="radio-checked" d="M448 224c0-106.048-85.952-192-192-192s-192 85.952-192 192 85.952 192 192 192 192-85.952 192-192zM256 384c-88.352 0-160-71.648-160-160s71.648-160 160-160 160 71.648 160 160-71.648 160-160 160zM256 320c-53.024 0-96-42.976-96-96s42.976-96 96-96 96 42.976 96 96-42.976 96-96 96z" />
<glyph unicode="&#xe63f;" glyph-name="question" d="M480 224c0-123.712-100.288-224-224-224s-224 100.288-224 224 100.288 224 224 224 224-100.288 224-224zM288 160v24.16c0 4.608-0.448 8.64 0.352 12 0.768 3.392 1.824 6.656 4 9.824 2.144 3.2 4.96 6.56 8.768 10.048 3.84 3.52 8.672 7.68 14.72 12.416 7.904 6.336 14.816 12.352 20.768 18.048 6.016 5.696 10.944 11.584 14.912 17.728 3.968 6.112 6.912 12.736 8.96 19.904 2.016 7.136 3.008 15.232 3.008 24.32 0 12.384-2.208 23.424-6.624 33.088-4.384 9.632-10.688 17.856-18.912 24.64s-18.24 11.936-30.016 15.424c-11.84 3.52-25.088 5.312-39.776 5.312-7.776 0-15.712-0.736-23.776-2.176-8.096-1.408-16.064-3.392-23.904-5.92s-15.424-5.408-22.688-8.672c-7.296-3.232-14.016-6.656-20.224-10.24l22.048-47.776c12.224 6.048 24.096 11.168 35.52 15.328 11.456 4.192 22.176 6.272 32.096 6.272 11.392 0 19.872-2.656 25.376-8 5.568-5.344 8.32-12.096 8.32-20.32 0-5.344-0.576-10.016-1.728-14.016-1.088-4.064-2.976-7.936-5.568-11.584-2.592-3.68-5.952-7.392-10.144-11.136-4.16-3.744-9.312-8-15.328-12.736-6.944-5.472-12.832-10.784-17.728-15.904s-8.896-10.368-12-15.776c-3.104-5.408-8.064-11.072-9.568-17.088-1.504-5.952-4.864-12.64-4.864-19.968v-27.2h64zM225.024 80.64c1.952-4.608 4.64-8.416 8.096-11.456 3.488-3.040 7.52-5.248 12.224-6.624 4.672-1.344 9.696-2.048 15.040-2.048 5.056 0 9.824 0.672 14.368 2.048s8.544 3.584 12 6.624 6.208 6.848 8.224 11.456 3.008 10.144 3.008 16.672c0 6.752-0.992 12.512-3.008 17.184s-4.736 8.448-8.224 11.328c-3.456 2.848-7.456 4.96-12 6.24s-9.344 1.952-14.368 1.952c-5.344 0-10.336-0.672-15.040-1.952s-8.736-3.392-12.224-6.24c-3.456-2.88-6.144-6.656-8.096-11.328-1.952-4.704-2.944-10.464-2.944-17.216 0-6.496 0.992-12.032 2.944-16.64z" />
<glyph unicode="&#xe640;" glyph-name="profile" d="M465.824 465.984c-9.376 9.344-20.928 14.016-34.24 14.016h-351.584c-13.344 0-24.672-4.672-33.984-14.016-9.344-9.312-14.016-20.672-14.016-33.984v-416c0-13.344 4.672-24.672 14.016-34.016 9.312-9.312 20.64-13.984 33.984-13.984h351.584c13.312 0 24.832 4.672 34.208 14.016 9.344 9.312 14.208 20.64 14.208 33.984v416c0 13.312-4.864 24.672-14.176 33.984zM416 32h-320v384h320v-384zM352 192h-192v38.4c0 15.584 5.6 29.088 16.8 40.512 11.168 11.36 24.8 17.088 40.8 17.088h76.8c15.968 0 29.6-5.728 40.768-17.088 11.2-11.424 16.832-24.928 16.832-40.512v-38.4zM352 128h-192v32h192v-32zM352 64h-192v32h192v-32zM290.016 301.984c-9.344-9.312-20.704-13.984-34.016-13.984-13.344 0-24.672 4.672-33.984 13.984-9.344 9.344-14.016 20.672-14.016 34.016 0 13.312 4.672 24.672 14.016 34.016 9.312 9.312 20.64 13.984 33.984 13.984 13.312 0 24.672-4.672 34.016-14.016 9.312-9.312 13.984-20.672 13.984-33.984 0-13.344-4.672-24.672-13.984-34.016z" />
<glyph unicode="&#xe641;" glyph-name="printer" d="M384 108.992v-89.696c0-10.368-8.544-19.296-19.008-19.296h-217.888c-10.464 0-19.104 8.928-19.104 19.328v89.696c0 10.336 8.64 18.976 19.104 18.976h217.888c10.464 0 19.008-8.64 19.008-19.008zM512 255.296v-158.944c0-18.080-14.304-32.352-32-32.352h-64v64c0 17.664-14.496 32-32.32 32h-255.2c-17.824 0-32.48-14.336-32.48-32v-64h-64c-17.664 0-32 14.272-32 32.352v158.944c0 18.048 14.304 32.704 32 32.704h64v128c0 17.664 14.432 32 32.256 32h255.424c17.824 0 32.32-14.336 32.32-32v-128h64c17.696 0 32-14.656 32-32.704zM384 416h-256v-128h256v128z" />
<glyph unicode="&#xe642;" glyph-name="previous" d="M117.12 224l-0.064 0.032 256 255.968 21.888-21.856-234.176-234.144 234.144-234.144-21.856-21.856-255.936 256z" />
<glyph unicode="&#xe643;" glyph-name="preview" d="M304 256c0-44.192-35.872-80-80-80s-80 35.808-80 80 35.872 80 80 80 80-35.808 80-80zM395.328 16.8l-85.568 85.568c-25.376-14.208-54.592-22.368-85.76-22.368-97.216 0-176 78.816-176 176s78.784 176 176 176 176-78.816 176-176c0-31.168-8.16-60.352-22.368-85.76l85.568-85.568-67.872-67.872zM224 128c70.688 0 128 57.312 128 128s-57.312 128-128 128-128-57.312-128-128 57.312-128 128-128z" />
<glyph unicode="&#xe644;" glyph-name="plug" d="M416 288v64h-32v128h-64v-128h-128v128h-64v-128h-32v-64zM96 256v-63.744c0-65.6 39.552-121.792 96-146.496v-77.76h128v77.76c56.448 24.704 96 80.896 96 146.496v63.744h-320z" />
<glyph unicode="&#xe645;" glyph-name="play-video" d="M512 224c0-61.344-7.008-120-20.992-176-74.688-10.688-152.992-16-235.008-16s-160.352 5.312-235.008 16c-13.984 56-20.992 114.656-20.992 176 0 61.312 7.008 120 20.992 176 74.656 10.656 153.024 16 235.008 16s160.32-5.344 235.008-16c13.984-56 20.992-114.688 20.992-176zM352 224l-160 96v-192l160 96z" />
<glyph unicode="&#xe646;" glyph-name="play" d="M437.344 224l-373.344-224v448z" />
<glyph unicode="&#xe647;" glyph-name="pixelate" d="M438.848 480h-365.728c-40.384 0-73.12-32.736-73.12-73.12v-365.728c0-40.384 32.736-73.152 73.12-73.152h365.728c40.416 0 73.152 32.768 73.152 73.152v365.728c0 40.384-32.736 73.12-73.152 73.12zM160 192h-96v96h96v-96zM160 320h-96v96h96v-96zM320 320h-128v96h128v-96zM448 192h-96v96h96v-96zM448 320h-96v96h96v-96z" />
<glyph unicode="&#xe648;" glyph-name="pinterest" d="M512 224c0-70.656-24.992-131.008-75.008-180.992s-110.336-75.008-180.992-75.008c-70.688 0-131.008 24.992-180.992 75.008s-75.008 110.336-75.008 180.992 24.992 131.008 75.008 180.992 110.304 75.008 180.992 75.008c70.656 0 131.008-24.992 180.992-75.008s75.008-110.336 75.008-180.992zM376.992 187.008c23.328 36 32 76.672 26.016 122.016-5.344 36.672-24 64.512-56 83.488s-68.704 26.144-110.016 21.472c-33.344-4-62.976-18.144-88.992-42.496s-39.328-54.144-40-89.504c-1.984-49.984 15.648-79.328 52.992-88 4.672 7.328 7.008 14.176 7.008 20.512s-0.992 11.168-3.008 14.496c-1.984 3.328-4.48 7.68-7.488 12.992s-5.184 10.656-6.496 16c-3.328 22.656 0.8 44 12.512 64 11.648 20 27.008 35.008 46.016 44.992s39.776 14.176 62.464 12.512c22.656-1.664 42.016-10.496 58.016-26.496 10.656-11.328 17.312-27.84 20-49.504 2.656-21.664 1.312-42.336-4-62.016-5.344-19.616-14.848-36.16-28.512-49.472-13.696-13.344-29.184-18.336-46.496-15.008-13.344 2.656-21.344 8.992-24 19.008-2.688 9.984-2.016 21.504 1.984 34.496s8.16 26.016 12.512 39.008c4.32 12.992 6.016 24.992 4.992 36s-6.848 18.496-17.504 22.496c-14.688 5.984-27.328 3.488-37.984-7.488-10.688-11.008-16.704-24.512-18.016-40.512-1.344-16 1.024-30.688 7.008-44-2.016-11.328-5.696-27.2-11.008-47.488-5.344-20.352-9.344-36.352-12-48-2.688-11.648-5.344-28.672-8-51.008-2.688-22.336-2.016-41.184 2.016-56.512 16.672 12 28.992 28.512 36.992 49.504s15.328 47.488 22.016 79.488c1.312-0.672 6.016-3.84 14.016-9.504s14.304-9.344 19.008-11.008c4.672-1.664 10.656-2.848 18.016-3.488 40.608-3.328 72.608 13.024 95.936 49.024z" />
<glyph unicode="&#xe649;" glyph-name="photos" d="M416 64h-384v384h384v-384zM384 416h-320v-320h320v320zM352 384h-256v-192h256v192zM448 416v-384h-384v-32h416v416h-32z" />
<glyph unicode="&#xe64a;" glyph-name="photo-remove" horiz-adv-x="544" d="M384 195.232c10.336-2.112 21.024-3.232 32-3.232v-192h-384v384h227.232c-2.112-10.336-3.232-21.024-3.232-32h-192v-320h320v163.232zM96 128h256v77.504c-47.040 20.576-82.304 62.976-92.768 114.496h-163.232v-192zM416 480c-70.688 0-128-57.312-128-128s57.312-128 128-128 128 57.312 128 128-57.312 128-128 128zM480 320h-128v64h128v-64z" />
<glyph unicode="&#xe64b;" glyph-name="photo-add" d="M512 320h-96v-96h-64v96h-96v64h96v96h64v-96h96v-64zM96 320v-192h256v64h-32v96h-96v32h-128zM384 192v-160h-320v320h160v32h-192v-384h384v192h-32z" />
<glyph unicode="&#xe64c;" glyph-name="photo" d="M448 32h-384v384h384v-384zM416 384h-320v-320h320v320zM384 352h-256v-192h256v192z" />
<glyph unicode="&#xe64d;" glyph-name="paypal" d="M411.648 395.328c-19.648 35.84-59.648 52.672-95.904 52.672h-196.256l-86.912-399.104h66.4l-10.496-48.16h115.168l28.224 132.224h82.208c78.752 0 144.576 48.512 162.144 131.008 15.136 74.496-26.528 115.68-64.576 131.36zM217.024 366.72h56.416c28.224 0 47.008-24.256 38.784-54.592-7.072-30.304-36.448-54.592-65.824-54.592h-54.016l24.64 109.184zM457.984 286.080c-6.784-34.528-22.016-63.68-44.192-84.768-4.032-4.224-8.384-8.192-12.992-11.84-23.744-18.688-53.728-28.576-86.72-28.576h-104.864l-28.224-132.224h-57.824l4.416 20.224h20.16l28.16 132.224h82.24c78.72 0 144.576 48.512 162.144 131.008 7.296 33.952 3.040 61.152-8.064 82.048 11.456-6.656 27.104-18.112 33.12-26.24 15.136-20.192 19.36-47.744 12.64-81.856z" />
<glyph unicode="&#xe64e;" glyph-name="pause" d="M224 32h-160v384h160v-384zM448 416h-160v-384h160v384z" />
<glyph unicode="&#xe64f;" glyph-name="page-remove" d="M320 64h-192v32h192v-32zM128 320h64v-64h-64v64zM320 160h-192v32h192v-32zM64 0h320v192l32 2.944v-226.944h-384v448h203.648l-11.648-32h-160v-384zM384 480c70.688 0 128-57.312 128-128s-57.312-128-128-128-128 57.312-128 128 57.312 128 128 128zM448 384h-128v-64h128v64z" />
<glyph unicode="&#xe650;" glyph-name="page-add" d="M512 320h-96v-96h-64v96h-96v64h96v96h64v-96h96v-64zM320 64h-192v32h192v-32zM128 320h64v-64h-64v64zM320 160h-192v32h192v-32zM64 0h320v192h32v-224h-384v448h192v-32h-160v-384z" />
<glyph unicode="&#xe651;" glyph-name="ordering" d="M256 256h-96v-192h-64v192h-95.936l128 180.064 127.936-180.064zM416 192v192h-64v-192h-95.936l128-180.064 127.936 180.064h-96z" />
<glyph unicode="&#xe652;" glyph-name="ok" d="M188.128 156.096l-90.528 90.528-45.248-45.248 135.776-135.776 271.52 271.52-45.248 45.28z" />
<glyph unicode="&#xe653;" glyph-name="notifications" d="M352 176c-79.52 0-144 64.48-144 144s64.48 144 144 144 144-64.48 144-144-64.48-144-144-144zM352 224c17.664 0 32 14.304 32 32s-14.336 32-32 32c-17.696 0-32-14.304-32-32s14.304-32 32-32zM320 416l14.016-96h36l13.984 96h-64zM32 192v64h148.096c8.96-24.096 22.464-45.888 40.032-64h-188.128zM352 136v0-40h-320v64h230.784c26.528-14.816 56.64-24 89.216-24zM352 0h-320v64h320v-64z" />
<glyph unicode="&#xe654;" glyph-name="no-money" d="M385.312 448l-258.656-448h-64l258.656 448h64zM233.888 352h-201.888v-224h72.576l129.312 224zM232.576 128h183.424v224h-54.112l-129.312-224zM448 288v-192h-233.92l-18.464-32h284.384v224h-32z" />
<glyph unicode="&#xe655;" glyph-name="next" d="M394.944 223.968l-256-255.968-21.888 21.856 234.176 234.144-234.176 234.144 21.888 21.856 256-256.032z" />
<glyph unicode="&#xe656;" glyph-name="newsfeed" d="M32 448v-448h448v448h-448zM448 32h-384v384h384v-384zM224 256h-128v128h128v-128zM416 320h-160v32h160v-32zM416 256h-160v32h160v-32zM224 64h-128v128h128v-128zM416 128h-160v32h160v-32zM416 64h-160v32h160v-32z" />
<glyph unicode="&#xe657;" glyph-name="new" d="M471.072 224l40.928-68.64-69.76-38.88 1.152-79.872-79.872 1.152-38.88-69.76-68.64 40.928-68.64-40.928-38.88 69.76-79.872-1.152 1.152 79.872-69.76 38.88 40.928 68.64-40.928 68.64 69.76 38.88-1.12 79.84 79.84-1.12 38.88 69.76 68.64-40.928 68.64 40.928 38.88-69.76 79.872 1.152-1.152-79.872 69.76-38.88-40.928-68.64zM193.888 276.128h-21.664l0.32-65.504-37.664 65.504h-24.768v-104.256h21.696l-0.608 67.712 39.52-67.712h23.168v104.256zM277.12 276.128h-62.592v-104.256h61.6v21.632h-40.64v20.608h41.056v20.352h-41.056v21.248h41.632v20.416zM408.224 276.128l-17.344-74.752-18.496 74.752h-24.256l-19.264-74.88-17.184 74.88h-25.344l28.352-104.256h26.848l18.336 72.128 17.472-72.128h25.76l28.512 104.256h-23.392z" />
<glyph unicode="&#xe658;" glyph-name="mostphotos" d="M255.968 480.096c-141.408 0-256.064-114.656-256.064-256.032s114.656-256.064 256.064-256.064 256.032 114.656 256.032 256.032-114.624 256.064-256.032 256.064zM255.968 5.024c-120.96 0-219.008 98.048-219.008 219.008s98.016 219.008 219.008 219.008 219.008-98.048 219.008-219.008-98.048-219.008-219.008-219.008zM420.992 103.968c-3.104-3.584-13.856-16.16-16.928-18.976s-7.2-1.536-9.216 2.816c-2.048 4.384-74.624 173.632-74.624 173.632s-26.56-61.92-32.064-74.368c-2.4-4.736-6.080-4.544-7.968 0.768-2.752 7.968-8.864 19.776-12.992 28.032-2.24 4.416-2.4 10.144 0.16 16.576 2.432 6.080 29.792 65.888 45.216 107.008 1.44 3.904 3.008 5.056 7.104 5.056 1.056 0 4.256-0.16 6.816-4.544s74.016-171.808 95.168-218.88c2.592-5.76 2.4-13.536-0.672-17.12zM322.72 44.512c1.792-5.824 1.632-11.552-3.328-13.312-7.776-2.752-18.848-5.664-20.224-5.984-5.856-1.344-8.608 1.088-12.192 8.256s-95.264 228.48-95.264 228.48-70.432-165.504-73.344-172.352c-2.656-6.272-7.168-7.424-10.784-4.352-3.552 3.072-13.376 14.016-16.704 19.136-3.328 5.152-2.976 10.24-0.096 16.864 9.888 23.136 75.328 172.192 93.696 218.080 1.472 3.616 2.848 5.408 7.040 5.6 4.96 0.192 5.76-3.68 7.392-7.2 3.584-7.648 121.984-287.392 123.808-293.216z" />
<glyph unicode="&#xe659;" glyph-name="minimize" d="M64 128h384v-64h-384v64z" />
<glyph unicode="&#xe65a;" glyph-name="message" d="M286.432 130.496c-4.544-14.176-16.768-41.696-48.928-67.648-45.664-36.864-135.488-32.512-135.488-32.512 20.16 14.912 36.832 39.744 50.208 68.864 7.296 15.904 10.496 35.328 11.872 46.88-59.488 24.352-99.872 71.616-99.872 125.92 0 79.232 85.888 143.456 191.776 143.456s191.744-64.224 191.744-143.456c0.032-71.488-69.92-130.56-161.312-141.504zM415.776 272.992c0 61.536-71.52 111.392-159.776 111.392s-159.808-49.856-159.808-111.392c0-47.52 42.88-87.808 102.976-103.808 0.256-3.2 0.832-15.52-4.864-38.176-5.216-20.832-15.584-48.768-31.264-68.576 0 0 36.288 8 66.88 32.672 25.632 20.672 34.24 56.128 36.384 67.2 83.36 3.808 149.472 51.648 149.472 110.688z" />
<glyph unicode="&#xe65b;" glyph-name="shortcut" d="M318.976 32c-75.872 0-153.664 48.512-167.232 125.888-11.392 65.344 3.424 115.2 40.032 159.040-14.048 18.592-56.512 67.072-56.512 67.072h216.736l-15.264-206.656c0 0-11.776 10.944-63.328 54.976-34.272-32.512-45.152-58.72-38.144-98.368 8-45.184 36.608-72.928 84.48-84.704 14.176-3.52 11.424-17.248-0.768-17.248z" />
<glyph unicode="&#xe65c;" glyph-name="menu" d="M480 416v-64h-448v64h448zM32 192h448v64h-448v-64zM32 32h448v64h-448v-64z" />
<glyph unicode="&#xe65d;" glyph-name="megaphone" d="M448 288v192c0 0-53.728-62.176-145.792-95.616-83.52-30.4-142.208-32.384-142.208-32.384h-96c-35.328 0-64-28.672-64-64v-96c0-35.328 28.672-64 64-64l40.992-137.472c5.248-16.864 23.168-26.336 40.032-21.088 16.896 5.216 26.336 23.136 21.12 40.032l-32.128 118.528h25.984c0.064 0 56.928-3.072 140.576-33.472 91.936-33.44 147.424-94.528 147.424-94.528v192c26.496 0 48 21.504 48 48s-21.504 48-48 48zM128 160h-64c-17.696 0-32 14.304-32 32v96c0 17.696 14.304 32 32 32h64v-160zM416 73.984c0 0-55.776 37.824-134.976 62.304-72.032 22.336-121.024 21.6-121.024 21.6v164.224c0 0 50.528-1.568 122.464 20.736 79.296 24.544 133.536 63.136 133.536 63.136v-332z" />
<glyph unicode="&#xe65e;" glyph-name="maximize" d="M448 64h-384v320h384v-320zM384 320h-256v-192h256v192z" />
<glyph unicode="&#xe65f;" glyph-name="loop" d="M64 160h128v-64h-122.88c-38.176 0-69.12 30.944-69.12 69.12v117.76c0 38.176 30.944 69.12 69.12 69.12h90.88v80l139.936-112-139.936-112v80h-96v-128zM442.88 352h-122.88v-64h128v-128h-96v79.008l-139.936-112 139.936-112v80.992h90.88c38.176 0 69.12 30.944 69.12 69.12v117.76c0 38.176-30.944 69.12-69.12 69.12z" />
<glyph unicode="&#xe660;" glyph-name="lock" d="M384 288v31.968c0 70.688-57.344 127.968-128 127.968s-128-57.28-128-127.968v-31.968h-32v-256h320v256h-32zM192 320c0 35.456 28.544 64.192 64 64.192s64-25.408 64-60.864v-35.328h-128v32zM288 128h-64v64h64v-64z" />
<glyph unicode="&#xe661;" glyph-name="location" d="M398.816 208.608c-14.624-34.048-142.496-208.608-142.496-208.608s-127.872 176.064-142.496 208.608c-10.336 22.88-17.664 56.768-17.664 82.464 0 86.592 73.248 156.8 159.84 156.8s159.84-70.208 159.84-156.8c0-25.472-7.84-61.088-17.024-82.464zM255.264 400.16c-61.856 0-112-50.112-112-111.968s50.144-111.968 112-111.968c61.824 0 111.968 50.112 111.968 111.968s-50.176 111.968-111.968 111.968z" />
<glyph unicode="&#xe662;" glyph-name="linkedin" d="M486.496 454.496c16.992-16.992 25.504-37.184 25.504-60.512v-340c0-23.328-8.512-43.488-25.504-60.512s-37.184-25.472-60.48-25.472h-340c-23.328 0-43.488 8.512-60.512 25.504s-25.504 37.152-25.504 60.48v340c0 23.328 8.512 43.488 25.504 60.512s37.152 25.504 60.512 25.504h340c23.296 0 43.488-8.512 60.48-25.504zM192 352c0 8.672-3.2 16.16-9.504 22.496-6.336 6.304-13.824 9.504-22.496 9.504s-16.192-3.2-22.496-9.504c-6.336-6.336-9.504-13.824-9.504-22.496s3.168-16.16 9.504-22.496c6.304-6.336 13.824-9.504 22.496-9.504s16.16 3.168 22.496 9.504c6.304 6.336 9.504 13.824 9.504 22.496zM192 288h-64v-224h64v224zM416 208c0 22.016-7.008 40.832-20.992 56.512s-31.008 23.488-51.008 23.488c-17.984 0-36.672-13.344-56-40v40h-64v-224h64v128c0 8.672 3.168 16.16 9.504 22.496 6.304 6.336 13.824 9.504 22.496 9.504s16.16-3.168 22.496-9.504c6.304-6.336 9.504-13.824 9.504-22.496v-128h64v144z" />
<glyph unicode="&#xe663;" glyph-name="link" d="M318.016 284c23.328-24 35.008-52.672 35.008-86.016s-11.68-62.016-35.008-86.016l-110.016-108.96c-23.328-23.328-51.68-35.008-84.992-35.008-33.344 0-62.016 11.68-86.016 35.008l-2.016 2.016c-23.328 23.968-34.976 52.64-34.976 85.984 0 33.312 11.648 61.664 35.008 84.992l76.992 76.992c-0.672-23.328 3.328-45.344 12-65.984l-48.992-50.016c-13.344-12.672-20-28-20-46.016s6.656-33.344 20-46.016l2.016-2.016c12.672-13.344 28-20 46.016-20s33.312 6.656 46.016 20l108.992 108.992c12.672 12.672 19.008 28 19.008 46.016s-6.4 33.376-19.040 46.048l-2.016 1.984c-3.328 4-7.68 7.328-12.992 10.016l40 40c4.64-3.328 8.992-6.688 12.992-10.016l2.016-1.984zM512 356.992c0-33.344-11.68-61.696-35.008-84.992l-76.992-76.992c0.672 23.328-3.328 45.312-12 66.016l48.992 50.016c13.312 12.672 20 28 20 46.016s-6.688 33.312-20 46.016l-2.016 2.016c-12.672 13.312-28 20-46.016 20s-33.344-6.688-46.016-20l-108.928-109.088c-12.704-12.672-19.008-28-19.008-46.016s6.304-33.344 19.008-46.016l2.016-2.016c3.296-3.968 7.616-7.296 12.96-9.952l-40-40c-4.672 3.328-8.992 6.656-12.992 10.016l-1.984 1.984c-23.328 24-35.008 52.672-35.008 86.016 0 33.312 11.648 62.016 35.008 86.016l109.984 108.96c23.328 23.328 51.648 35.008 84.992 35.008 33.312 0 62.016-11.68 86.016-35.008l2.016-2.016c23.296-23.968 34.976-52.672 34.976-85.984z" />
<glyph unicode="&#xe664;" glyph-name="like" d="M474.24 256.992c-3.168-28.832-27.168-34.016-27.168-34.016s20.512-11.008 15.008-36.992l-4.48-19.488c-8-31.008-32.512-30.496-32.512-30.496s16.096-12.416 5.504-39.488c-12.512-32-33.696-33.504-33.696-33.504-3.776-17.696-14.816-32-38.816-32-97.984 0-130.24 32-197.184 32 0 96 0 256 0 256s43.456 2.048 109.152 58.912c41.696 36.032 56.224 68.384 62.56 102.080 28.992 0 49.696-20.992 43.68-66.624-6.592-50.176-36.672-94.368-36.672-94.368h96.64c26.016 0 40.672-13.344 39.328-35.328l-1.344-26.688zM64 319.008h64.896v-256h-64.896v256z" />
<glyph unicode="&#xe665;" glyph-name="lightbulb" d="M257.152 448.736c79.488 0.096 144.288-56.768 144.288-127.104 0-19.040-23.488-66.816-43.264-79.424-25.216-16.192-61.28-6.944-102.080-7.072-42.112 0-74.912-12.832-99.456 6.624-26.112 20.736-43.2 59.168-43.2 79.328 0 70.4 64.16 127.488 143.712 127.648zM256.032 67.328c43.2 0 78.24 9.952 78.24 1.312 0-8.512-35.040-32.352-78.24-32.352-43.232 0-78.208 23.84-78.208 32.352 0 8.608 34.976-1.312 78.208-1.312zM256.032 116.864c43.2 0 78.24 9.952 78.24 1.312 0-8.608-35.040-32.32-78.24-32.32-43.232 0-78.208 23.712-78.208 32.32 0 8.64 34.976-1.312 78.208-1.312zM432 306.56c1.664 95.776-78.816 173.44-176 173.44s-176-77.664-176-173.44c0-51.328 32-83.552 71.008-129.568 0.576-0.32 8.992-13.568 8.992-13.888v-95.872c0-28.224 19.744-52.544 50.24-65.184 6.176-19.68 23.968-34.048 45.984-34.048s39.36 14.4 45.504 34.048c30.464 12.672 50.272 36.96 50.272 65.184v95.52c0 0.48 12.128 14.784 12.992 15.264 40 46.976 66.080 74.592 67.008 128.544z" />
<glyph unicode="&#xe666;" glyph-name="levels" d="M192 320h64v-32h-64v-64h-32v64h-64v32h64v64h32v-64zM480 374.848v-301.696c0-40.416-32.736-73.152-73.152-73.152h-301.696c-40.416 0-73.152 32.736-73.152 73.152v301.696c0 40.416 32.736 73.152 73.152 73.152h301.696c40.416 0 73.152-32.736 73.152-73.152zM416 128h-128v-32h128v32zM437.888 399.456c-11.776 11.744-20.544 16.896-43.872 16.896l-284.192 0.096c-25.344 0-45.888-20.704-45.888-46.272l-0.288-288.8c0-17.984 5.792-26.784 17.536-38.528l356.704 356.608z" />
<glyph unicode="&#xe667;" glyph-name="lens" d="M480 224c0-123.712-100.288-224-224-224s-224 100.288-224 224 100.288 224 224 224 224-100.288 224-224zM256 416c-106.016 0-192-85.984-192-192s85.984-192 192-192 192 85.984 192 192-85.984 192-192 192zM400 224c0-79.488-64.48-144-144-144s-144 64.512-144 144 64.48 144 144 144 144-64.512 144-144zM208 319.968c-26.496 0-48-21.472-48-47.968s21.504-47.968 48-47.968 48 21.472 48 47.968-21.504 47.968-48 47.968z" />
<glyph unicode="&#xe668;" glyph-name="last" d="M96 384v-320l224 160-224 160zM320 384h96v-320h-96v320z" />
<glyph unicode="&#xe669;" glyph-name="label" d="M80 448h144c13.344 0 28-3.328 44-10.016s28.672-14.688 38.016-24l192-192c9.312-9.312 13.984-20.48 13.984-33.472s-4.672-24.512-14.016-34.496l-172-172c-9.984-9.344-21.472-14.016-34.496-14.016s-24.16 4.672-33.504 14.016l-192 192c-9.312 9.312-17.312 22.016-24 38.016-6.656 15.968-9.984 30.624-9.984 43.968v144c0 13.312 4.672 24.672 14.016 34.016 9.312 9.312 20.672 13.984 33.984 13.984zM111.328 296.672c9.344-9.344 20.672-14.016 34.016-14.016s24.672 4.672 34.016 14.016c9.344 9.312 14.016 20.672 14.016 34.016 0 13.312-4.672 24.672-14.016 34.016-9.344 9.28-20.672 13.984-34.016 13.984-13.312 0-24.672-4.672-34.016-14.016-9.312-9.344-13.984-20.672-13.984-33.984 0-13.344 4.672-24.704 13.984-34.016z" />
<glyph unicode="&#xe66a;" glyph-name="js" d="M128 142.976c5.856-18.048 16.672-40.928 32.512-68.672 11.008-19.136 19.84-31.424 26.496-36.928 4.672-3.776 10.080-5.632 16.256-5.632 7.328 0 13.504 2.368 18.496 7.072s7.488 10.336 7.488 16.928c0 4.704-2.016 10.112-6.016 16.224-18.016 27.744-31.136 53.76-39.36 78.080-8.256 24.288-12.384 48.992-12.384 74.080 0 24.928 4.128 49.536 12.384 73.856 8.256 24.288 21.376 50.336 39.36 78.080 4 6.272 6.016 11.68 6.016 16.224 0 6.592-2.496 12.224-7.488 16.928s-11.168 7.040-18.496 7.040c-6.336 0-12.096-2.080-17.248-6.24s-13.152-15.328-24-33.504c-15.008-25.376-26.112-48.448-33.28-69.152-9.632-28.064-14.496-55.808-14.496-83.232 0-26.528 4.608-53.568 13.76-81.152v0zM384 305.248c-5.856 17.888-16.672 40.672-32.512 68.448-11.008 19.296-19.84 31.584-26.496 36.928-4.64 3.776-10.080 5.632-16.256 5.632-7.328 0-13.504-2.368-18.496-7.072s-7.488-10.336-7.488-16.896c0-4.576 2.016-9.984 6.016-16.224 18.016-27.744 31.136-53.792 39.36-78.080 8.256-24.32 12.384-48.928 12.384-73.856 0-25.088-4.128-49.792-12.384-74.080-8.256-24.32-21.376-50.336-39.36-78.080-4-6.112-6.016-11.52-6.016-16.224 0-6.592 2.496-12.224 7.488-16.928s11.168-7.072 18.496-7.072c6.336 0 12.096 2.112 17.248 6.336s13.152 15.456 24 33.632c15.008 25.248 26.080 48.192 33.248 68.896 9.664 28.224 14.496 56.032 14.496 83.488 0.032 26.368-4.576 53.408-13.728 81.152v0z" />
<glyph unicode="&#xe66b;" glyph-name="javascript" d="M429.696 480h-347.392c-45.504 0-82.304-36.8-82.304-82.272v-347.424c0-45.472 36.8-82.304 82.304-82.304h347.36c45.472 0 82.336 36.832 82.336 82.272v347.456c0 45.472-36.864 82.272-82.304 82.272zM224 176.672c0-68.704-32.992-89.824-77.536-89.824-12.288 0-26.848 2.688-35.296 6.112l5.184 27.264c6.912-2.688 16.864-4.96 28-4.96 29.952 0.032 47.648 13.44 47.648 64.096v172.64h32v-175.328zM334.208 87.264c-24.928 0-52.192 7.328-66.016 16.512l8.448 28.032c14.976-9.216 36.832-16.896 59.872-16.896 34.144 0 54.112 18.048 54.112 44.16 0 24.16-13.856 38.016-48.736 51.392-42.208 14.944-68.288 36.832-68.288 73.28 0 40.32 33.376 70.24 83.648 70.24 26.464 0 45.696-6.144 57.184-12.672l-9.216-27.264c-8.448 4.64-25.728 12.288-49.12 12.288-35.328 0-48.736-21.088-48.736-38.752 0-24.192 15.744-36.064 51.424-49.92 43.744-16.864 66.016-37.984 66.016-75.968 0-39.872-29.536-74.432-90.592-74.432z" />
<glyph unicode="&#xe66c;" glyph-name="java" d="M429.696-32h-347.392c-45.504 0-82.304 36.832-82.304 82.272v347.456c0 45.472 36.8 82.272 82.304 82.272h347.36c45.472 0 82.336-36.8 82.336-82.272v-347.424c0-45.472-36.864-82.304-82.304-82.304zM253.376 236.096c7.808-7.36 4.16 17.28 3.136 18.912-6.784 10.752-19.712 22.112-25.504 33.504-16.32 31.936 17.568 55.488 39.488 74.496 18.272 15.84 35.232 31.424 40.064 56.512 2.016 10.432 1.952 22.048-1.952 32.096-4.48 11.648-18.88 13.664-15.104-5.632 8.992-46.016-74.56-66.56-96.992-111.008-20.128-39.904 31.072-75.136 56.864-98.88zM254.336 315.584c-5.024-20.288 6.784-34.784 17.856-50.176 4.352-6.016 7.616-11.168 6.816-18.912-0.512-4.64-15.456-18.464-8.512-18.496 12.8-0.096 38.048 18.304 41.504 28.512 8.64 25.536-32.512 37.664-28.416 62.528 2.624 15.968 19.328 27.168 31.616 35.552 5.792 3.936 53.152 33.6 21.888 24.16-32.064-9.696-73.792-26.848-82.752-63.168-4.928-19.968 7.136 29.024 0 0zM348.992 236c11.488 0 19.008-3.008 30.496-11.488 4.32-3.2 8.352-11.488 8.48-17.536 0.32-18.144-18.016-28.288-46.72-44.512-3.872-2.176-0.16-6.784 2.624-5.696 13.12 1.728 24.928 5.024 35.616 9.728 16 7.008 27.488 14.496 33.504 31.008 5.12 14.048-1.76 33.088-15.488 40-13.344 6.72-33.504 8.992-48 3.488-7.008-2.656-8-4.992-0.512-4.992zM222.496 194.496c31.456 0 59.328 0.992 90.016 8.512 8.928 2.144 21.888 5.728 29.504 11.488 6.24 4.704 8.32 11.040-2.784 9.216-33.536-5.44-60.768-7.2-94.72-8.704-24.032-1.056-59.52-2.016-64.512 3.488-3.616 3.968 4.768 7.808 8.512 8.512 20.256 3.648 32.864 11.36 15.296 11.744-17.664 0.384-31.008-3.84-47.328-9.504-7.136-2.464-31.584-14.368-16.064-21.984 22.208-10.976 57.696-12.768 82.080-12.768zM328.992 163.008c6.304 1.664-4.576 25.504-26.016 20.512-20.992-4.928-40.032-6.528-61.472-7.52-14.816-0.608-26.496-0.064-40.992 4.512-9.472 2.912-5.92 17.472-27.008 6.496-37.376-19.488 16.48-36.992 55.008-36.992 42.496-0.032 67.68 4.032 100.48 12.992zM179.072 129.024c0.928-11.040 9.44-18.528 28.448-22.528 22.976-4.832 60.704-2.464 83.488 3.008 12.512 3.008 37.824 11.744 29.632 18.24-6.624 5.248-11.456 12.832-24.64 8.256-16.672-5.792-33.28-7.488-51.008-7.488-11.744 0-29.952 0.096-38.016 5.504-6.976 4.672-4.48 5.984-7.552 9.472-3.104 3.52-20.992-7.136-20.352-14.464zM381.504 81.984c14.592 6.272 20.992 19.488 10.688 24.96-6.112 3.264-7.872-3.616-25.184-8.48-58.272-16.288-225.536-17.792-223.488 0.512 0.512 4.512 10.208 8.096 19.008 9.504 6.016 0.96 21.44 6.688 1.952 8.224-21.504 1.696-49.6-7.136-59.104-16.896-17.152-17.632 14.144-27.488 24.128-30.304 32-8.992 70.304-11.648 106.016-10.496 86.496 2.656 113.472 8.992 145.984 22.976zM378.496 72.992c-31.776-12.096-80.064-19.712-128.768-19.712-26.592 0-49.024-1.12-84.704 2.72-33.696 3.648 4.576-11.2 18.464-12.992 51.968-6.784 91.232-6.336 137.504 0.512 18.048 2.656 43.456 7.424 59.616 16.384 11.328 6.272 18.656 11.52 23.328 16.832 5.056 5.792 6.048 13.024-1.44 9.28-9.984-5.024-13.504-9.024-24-13.024z" />
<glyph unicode="&#xe66d;" glyph-name="jalbum" d="M486.496 454.496c29.376-29.376 25.504-66.816 25.504-104.416 0-48.384 0-96.768 0-145.184 0-70.944 27.776-225.12-76.192-236.384-77.088-8.32-158.816-0.512-236.224-0.512-73.056 0-199.584-19.712-199.584 89.824 0 74.176 0 148.416 0 222.592 0 67.296-20.288 188.64 76.192 199.072 64.928 7.008 133.696 0.512 198.912 0.512 39.84 0 79.68 0 119.52 0 33.824 0 65.472 0.864 91.872-25.504zM461.28 305.984c-18.784 18.784-41.792 16.224-52.512 43.488-11.68 29.728-0.768 55.52-33.088 82.048-53.728 44.128-111.552-9.024-121.408-62.592-29.28-9.888-58.272-21.344-85.376-36.32-27.2-15.040-60.704 6.464-92.768-3.328-53.632-16.384-68.608-95.2-18.368-125.344 21.12-12.672 35.2-23.040 35.552-49.376 0.416-28.672 17.056-52.512 36.928-72.16 45.632-45.088 113.408-77.888 178.752-72.128 67.776 5.984 112.32 60.96 137.28 119.68 19.68 46.432 45.632 128.416 15.008 176.032-3.328 3.328 13.312-20.704 0 0zM305.28 404.928c22.784 40.608 82.88-2.688 53.28-40.064-24.16-30.496-72.576 5.76-53.28 40.064 6.016 10.688-5.984-10.656 0 0zM294.272 291.968c17.344 0 10.176-20-3.008-20-13.408 1.472-11.264 21.184 3.008 20 6.048 0-8 0.672 0 0zM146.272 226.944c15.040 0 7.392-20.768-2.88-22.368-12.416-1.952-14.368 22.368 2.88 22.368zM116 247.328c-21.728-34.208-74.784-2.144-53.504 34.56 19.808 34.048 77.44 3.2 53.504-34.56zM331.296 78.944c-71.712-43.808-168.576-23.392-219.008 43.040 58.976 5.216 104.64 49.472 160.992 62.976 67.552 15.488 124.704 53.152 180.992 92-17.952-92.672-58.976-158.688-122.976-198.016-36-22.016 64 39.328 0 0z" />
<glyph unicode="&#xe66e;" glyph-name="invert" d="M256 480v0c-87.68 0-159.040-71.168-159.040-158.624 0-41.056 15.168-79.328 42.72-107.712 12.672-13.088 14.4-17.472 14.656-18.304v0c0 0 0-1.6-1.28-5.568-1.92-6.080-18.496-12.992-49.344-20.448-66.88-16.128-103.712-45.6-103.712-116.224v-18.368c0-39.968 24-66.752 64-66.752h384c40 0 64 23.904 64 63.808v21.312c0 70.624-36.832 100.096-103.712 116.224-30.816 7.424-47.392 14.336-49.344 20.448-1.312 4.224-1.248 5.792-1.248 5.792 0.224 0.576 1.888 4.928 14.624 18.112 27.552 28.352 42.72 66.592 42.72 107.68 0 87.456-71.36 158.624-159.040 158.624v0zM256 10.56c-90.464 0-177.856 0-189.088 0-18.656 0-24.256 11.328-24.256 26.080v16.48c0 42.688 15.936 61.6 71.104 74.88 48.192 11.68 71.904 23.328 80 49.152 8.128 25.824 0.832 41.088-23.392 66.112-19.296 19.872-30.72 46.752-30.72 78.112 0 64.128 52.064 116.064 116.352 116.064v-426.88z" />
<glyph unicode="&#xe66f;" glyph-name="instagram" d="M487.008 455.008c16.64-16.704 24.992-36.704 24.992-60v-342.016c0-23.328-8.352-43.328-24.992-60-16.704-16.64-36.704-24.992-60-24.992h-342.016c-23.328 0-43.328 8.352-60 24.992-16.672 16.672-24.992 36.672-24.992 60v342.016c0 23.328 8.32 43.328 24.992 60 16.672 16.64 36.672 24.992 60 24.992h342.016c23.296 0 43.296-8.352 60-24.992zM398.016 256c2.656-10.688 4-21.344 4-32 0-40-14.336-74.336-43.008-103.008-28.704-28.672-63.008-43.008-103.008-43.008s-74.336 14.304-103.008 43.008c-28.672 28.672-42.976 63.008-42.976 103.008 0 10.656 1.312 21.312 4 32h-50.016v-192c0-8.672 3.168-16.192 9.504-22.496 6.304-6.336 13.824-9.504 22.496-9.504h320c8.672 0 16.16 3.168 22.496 9.504 6.304 6.304 9.504 13.824 9.504 22.496v192h-49.984zM158.016 224c0-26.688 9.664-49.696 28.992-68.992 19.296-19.36 42.304-29.024 68.992-29.024 26.656 0 49.664 9.664 68.992 28.992s29.024 42.336 29.024 69.024c0 11.328-2.016 22.016-6.016 32h-184c-4-10.016-5.984-20.672-5.984-32zM448 400c0 4.672-1.504 8.512-4.512 11.488s-6.816 4.512-11.488 4.512h-32c-4.672 0-8.512-1.504-11.488-4.512s-4.512-6.816-4.512-11.488v-32c0-4.672 1.504-8.512 4.512-11.488s6.816-4.512 11.488-4.512h32c4.672 0 8.512 1.504 11.488 4.512s4.512 6.816 4.512 11.488v32z" />
<glyph unicode="&#xe670;" glyph-name="info" d="M256 448c-123.712 0-224-100.288-224-224s100.288-224 224-224c123.68 0 224 100.32 224 224s-100.288 224-224 224zM336 128v-32h-160v32h48v96h-32v32h96v-128h48zM304 336c0-26.528-21.472-48-48-48v0c-26.528 0-48 21.472-48 48v0c0 26.528 21.472 48 48 48v0c26.528 0 48-21.472 48-48v0z" />
<glyph unicode="&#xe671;" glyph-name="index-page" d="M87.68 448h336.64c30.752 0 55.68-24.928 55.68-55.68v-336.64c0-30.72-24.928-55.68-55.68-55.68h-336.64c-30.784 0-55.68 24.928-55.68 55.68v336.64c0 30.752 24.896 55.68 55.68 55.68zM224 384h-128v-128h128v128zM224 192h-128v-128h128v128zM416 384h-128v-128h128v128zM416 192h-128v-128h128v128z" />
<glyph unicode="&#xe672;" glyph-name="index" d="M160 320h-128v128h128v-128zM320 448h-128v-128h128v128zM480 448h-128v-128h128v128zM160 288h-128v-128h128v128zM320 288h-128v-128h128v128zM480 288h-128v-128h128v128zM160 128h-128v-128h128v128zM320 128h-128v-128h128v128zM480 128h-128v-128h128v128z" />
<glyph unicode="&#xe673;" glyph-name="include" d="M256 448c123.712 0 224-100.288 224-224 0-123.68-100.288-224-224-224s-224 100.32-224 224c0 123.712 100.288 224 224 224zM384 256h-96v96h-64v-96h-96v-64h96v-96h64v96h96v64z" />
<glyph unicode="&#xe674;" glyph-name="home" d="M470.4 270.784l-214.4 166.656-214.4-166.656v-67.84l214.4 165.792 214.4-165.824v67.872zM256 313.408l-160.768-120.608v-160.8h129.024v128.256h63.488v-128.256h129.056v160.8l-160.8 120.608z" />
<glyph unicode="&#xe675;" glyph-name="heart-add" d="M480 320h-64v-64h-64v64h-64v64h64v64h64v-64h64zM404.96 224c-20.032-44.544-64.128-80.704-104-108.96-30.848-21.856-57.76-45.6-76.576-67.328-19.424 23.232-45.536 45.632-77.888 66.816-52.48 34.336-115.008 89.888-114.496 159.232 0.672 97.536 47.744 110.016 88.672 110.016 35.712 0 68.096-24.864 88.768-68.224l14.336-30.048 14.496 30.016c5.216 10.752 11.168 20.384 17.728 28.768v45.312c-11.808-9.376-22.656-21.024-32.096-34.976-26.24 38.752-63.392 61.152-103.264 61.152-54.592 0-119.808-24.576-120.64-141.792-0.608-83.776 69.856-147.52 128.992-186.24 36.16-23.712 64.544-49.76 82.016-75.264l13.088-19.104 13.216 19.040c7.552 10.848 30.688 40.064 82.112 76.48 31.328 22.176 96.704 68.544 120.032 135.104h-34.496z" />
<glyph unicode="&#xe676;" glyph-name="heart-empty" d="M256.128-6.592l-13.088 19.104c-17.504 25.504-45.888 51.52-82.016 75.264-59.168 38.688-129.632 102.432-129.024 186.208 0.832 117.184 66.048 141.792 120.672 141.792 39.84 0 76.992-22.4 103.264-61.152 26.592 39.36 63.872 61.376 105.248 61.376 74.848 0 118.144-51.776 118.816-142.048 0.672-93.536-89.888-157.664-128.544-185.024-51.424-36.416-74.56-65.632-82.112-76.48l-13.216-19.040zM152.672 383.776c-40.928 0-88-12.48-88.672-110.016-0.512-69.344 62.016-124.864 114.528-159.264 32.352-21.184 58.432-43.584 77.888-66.816 18.816 21.76 45.728 45.504 76.576 67.328 53.824 38.080 115.488 90.592 115.040 158.656-0.416 50.368-15.744 110.336-86.848 110.336-36.736 0-69.888-24.96-90.912-68.512l-14.496-29.984-14.336 30.048c-20.704 43.36-53.056 68.224-88.768 68.224z" />
<glyph unicode="&#xe677;" glyph-name="heart-remove" d="M448 384h-128v-64h128v64zM384 480c70.688 0 128-57.312 128-128s-57.312-128-128-128-128 57.312-128 128 57.312 128 128 128zM428.256 198.976c-28.672-53.184-81.568-90.784-108.768-110.048-51.424-36.416-74.56-65.632-82.112-76.48l-13.216-19.040-13.088 19.104c-17.504 25.504-45.888 51.52-82.016 75.264-59.2 38.688-129.664 102.432-129.056 186.208 0.832 117.184 66.048 141.792 120.672 141.792 39.84 0 76.992-22.4 103.264-61.152 0.096 0.192 0.256 0.352 0.384 0.576 0-1.12-0.32-2.112-0.32-3.2 0-17.12 3.392-33.28 8.384-48.736l-8.608-17.76-14.336 30.048c-20.704 43.36-53.056 68.224-88.768 68.224-40.928 0-88-12.48-88.672-110.016-0.512-69.344 62.016-124.864 114.528-159.264 32.352-21.184 58.432-43.584 77.888-66.816 18.816 21.76 45.728 45.504 76.576 67.328 29.888 21.152 61.824 46.912 84.576 77.12 14.88 0.16 29.024 2.912 42.688 6.848z" />
<glyph unicode="&#xe678;" glyph-name="heart" d="M255.872 332.704c-24.608 57.408-68.48 83.072-110.88 83.072-75.264 0-111.808-45.216-112.448-135.264-0.608-86.016 78.272-151.232 130.816-185.6 50.944-33.376 78.176-64.064 92.864-85.44 14.848 21.376 45.216 52.96 92.384 86.368 51.552 36.512 131.392 98.56 130.816 184.608-0.608 88.544-41.056 135.552-110.432 135.552-43.616 0-89.024-26.752-113.12-83.296z" />
<glyph unicode="&#xe679;" glyph-name="header" d="M422.976 448h-336.64c-30.816 0-54.336-24.928-54.336-55.68v-336.64c0-30.752 23.52-55.68 54.336-55.68h336.64c30.752 0 57.024 24.928 57.024 55.68v336.64c0 30.752-26.272 55.68-57.024 55.68zM448 67.2c0-19.424-17.088-35.2-36.544-35.2h-313.6c-19.456 0-33.856 15.776-33.856 35.2v220.8h384v-220.8z" />
<glyph unicode="&#xe67a;" glyph-name="hammer" horiz-adv-x="544" d="M536.608 62.592l-17.632-30.496c-14.816-25.728-47.136-34.848-72.096-20.416l-156.736 90.464c-15.68 9.088-23.808 25.44-24.704 42.656l-89.92 51.84c-4.576-8.096-8.864-15.616-12.512-21.824-15.968-27.648-53.312-12.864-53.312-12.864l-10.688-17.12 25.152-37.888-20.064-34.752-104.096 60.128 20.064 34.752 43.904-2.752 10.88 17.152c0 0-31.424 26.080-14.592 55.328 23.648 40.896 37.984 65.728 58.496 101.184 66.016 114.432 140.384 111.744 201.92 99.328 12.992-2.592 14.176-25.12-1.056-27.040-43.296-5.568-81.024-25.728-109.728-75.968 20.704-12.544 24.736-36.032 13.152-55.072-0.128-0.224-0.288-0.512-0.416-0.736l89.44-51.648c15.328 7.744 33.824 7.936 49.472-1.088l156.704-90.432c24.96-14.432 33.216-46.976 18.368-72.736zM500.832 117.856l-145.696 84.16c-16.672 9.632-38.208 3.456-48.064-13.632l-11.776-20.352c-9.888-17.152-4.384-38.848 12.224-48.48l145.728-84.096c16.672-9.696 38.144-3.552 48.096 13.632l11.744 20.352c9.888 17.12 4.384 38.816-12.256 48.416z" />
<glyph unicode="&#xe67b;" glyph-name="group-remove" d="M279.872 162.848c11.36 13.536 9.632 33.728-3.904 45.088l-73.472 61.792c-1.568 1.312-3.424 1.824-5.152 2.784-7.008 5.632-17.792 8.096-24.096 12.096-6.656 3.2-7.744 7.136-1.12 12.896 10.912 9.504 19.232 19.488 19.232 38.496 0 26.528-21.44 48-48 48-26.496 0-48-21.472-48-48 0-15.936 8.288-29.376 20.224-38.080 0 0 6.72-9.856-1.92-13.408-9.344-2.752-18.144-6.816-25.44-12.96-1.088-0.704-2.336-0.992-3.36-1.824l-73.472-61.792c-13.536-11.36-15.296-31.552-3.904-45.088s31.84-15.296 45.408-3.904l11.104 9.088v-136.032c0-17.696 14.304-32 32-32 17.664 0 32 14.304 32 32v64h32v-64c0-17.696 14.336-32 32-32 17.696 0 32 14.304 32 32v136.544l11.104-9.6c13.536-11.392 33.408-9.632 44.768 3.904zM256 119.424v-55.424c17.696 0 32 14.304 32 32v32.736c-9.632-5.728-20.544-9.248-32-9.312zM243.392 277.12l-20.32 17.088c-3.072 2.592-6.112 4.32-8.224 5.376 5.088 9.696 8.512 21.568 8.512 36.416 0 37.728-26.304 69.216-61.472 77.632 5.92 19.84 24.064 34.368 45.792 34.368 15.2 0 28.576-7.168 37.344-18.144-12.992-23.136-21.024-49.44-21.024-77.856 0-27.232 7.424-52.448 19.392-74.88zM383.968 479.968c-70.656 0-127.968-57.312-127.968-127.968 0-70.72 57.312-128.032 127.968-128.032 70.72 0 128.032 57.312 128.032 128.032 0 70.656-57.312 127.968-128.032 127.968zM448 320h-128v64h128v-64z" />
<glyph unicode="&#xe67c;" glyph-name="group-add" d="M512 416v-64h-64v-64h-64v64h-64v64h64v64h64v-64h64zM279.872 162.848c11.36 13.536 9.632 33.728-3.904 45.088l-73.472 61.792c-1.568 1.312-3.424 1.824-5.152 2.784-7.008 5.632-17.792 8.096-24.096 12.096-6.656 3.2-7.744 7.136-1.12 12.896 10.912 9.504 19.232 19.488 19.232 38.496 0 26.528-21.472 48-48 48s-48-21.472-48-48c0-15.936 8.256-29.376 20.192-38.080 0 0 6.72-9.856-1.92-13.408-9.312-2.752-18.112-6.816-25.408-12.96-1.088-0.704-2.336-0.992-3.36-1.824l-73.472-61.792c-13.536-11.36-15.296-31.552-3.904-45.088 11.36-13.536 31.84-15.296 45.376-3.904l11.136 9.088v-136.032c0-17.696 14.336-32 32-32s32 14.304 32 32v64h32v-64c0-17.696 14.336-32 32-32 17.696 0 32 14.304 32 32v136.544l11.104-9.6c13.536-11.392 33.408-9.632 44.768 3.904zM256 119.424v-55.424c17.696 0 32 14.304 32 32v32.736c-9.632-5.728-20.544-9.248-32-9.312zM340.288 271.936l-73.472 61.792c-1.568 1.312-3.456 1.824-5.152 2.784-7.008 5.632-17.792 8.096-24.096 12.096-6.656 3.2-7.744 7.136-1.12 12.896 10.88 9.504 19.232 19.488 19.232 38.496 0 26.528-21.472 48-48 48-21.728 0-39.872-14.528-45.76-34.368 35.168-8.416 61.44-39.904 61.44-77.632 0-14.848-3.424-26.72-8.544-36.416 2.144-1.056 5.184-2.784 8.256-5.376l73.472-61.792c5.216-4.352 9.248-9.472 12.672-14.944 12.16-4.32 26.144-1.12 34.976 9.376 11.36 13.536 9.632 33.728-3.904 45.088z" />
<glyph unicode="&#xe67d;" glyph-name="group" d="M500.608 239.936l-73.472 61.792c-1.568 1.312-3.424 1.856-5.152 2.784-7.008 5.664-17.792 8.096-24.096 12.096-6.656 3.232-7.744 7.168-1.12 12.896 10.88 9.504 19.232 19.488 19.232 38.496 0 26.528-21.472 48-48 48s-48-21.472-48-48c0-15.936 8.256-29.376 20.192-38.080 0 0 6.72-9.856-1.92-13.408-9.344-2.752-18.144-6.816-25.472-12.928-1.024-0.736-2.272-1.024-3.296-1.856l-53.344-44.864-53.344 44.864c-1.568 1.312-3.456 1.824-5.152 2.784-7.008 5.632-17.792 8.096-24.096 12.096-6.656 3.2-7.744 7.136-1.12 12.896 10.88 9.504 19.232 19.488 19.232 38.496 0 26.528-21.472 48-48 48s-48-21.472-48-48c0-15.936 8.256-29.376 20.192-38.080 0 0 6.72-9.856-1.92-13.408-9.312-2.752-18.112-6.816-25.408-12.96-1.088-0.704-2.336-0.992-3.36-1.824l-73.472-61.792c-13.536-11.36-15.296-31.552-3.904-45.088s31.68-15.296 45.248-3.904l10.944 9.088v-136.032c0-17.696 14.336-32 32-32s32 14.304 32 32v64h32v-64c0-17.696 14.336-32 32-32 17.696 0 32 14.304 32 32v136.544c0 0 12.352-16.736 32.16-16.736s31.84 16.224 31.84 16.224v-136.032c0-17.696 14.336-32 32-32s32 14.304 32 32v64h32v-64c0-17.696 14.336-32 32-32 17.696 0 32 14.304 32 32v136.544l11.392-9.6c13.536-11.36 33.728-9.632 45.088 3.904s9.632 33.728-3.872 45.088z" />
<glyph unicode="&#xe67e;" glyph-name="google-plus" d="M416 352v96h-32v-96h-96v-32h96v-96h32v96h96v-267.008c0-23.328-8.352-43.328-24.992-60s-36.704-24.992-60-24.992h-154.016c2.016 8 3.008 16 3.008 24 0 26.656-4.672 48.672-14.016 66.016-9.344 17.312-25.696 34.016-48.992 50.016-10.016 7.328-20.352 16.672-31.008 28-10.688 11.328-16 20.672-16 28 0 9.312 2.144 17.344 6.496 24 4.32 6.656 13.824 15.648 28.512 27.008 33.312 25.952 50.016 56.96 50.016 92.96 0 23.328-4.992 44.512-15.008 63.488s-24 31.84-42.016 38.496h56l40 34.016h-178.976c-38.016 0-75.008-15.68-111.008-47.008 0.672 22.656 9.312 42.144 26.016 58.496 16.64 16.352 36.32 24.512 58.976 24.512h342.016c23.328 0 43.328-8.352 60-24.992 16.64-16.704 24.992-36.672 24.992-60v-43.008h-96zM0 76.992v134.016c24.672-21.344 55.328-32 92-32 6.656 0 12.32 0.32 16.992 0.992-6.016-12-8.992-23.008-8.992-32.992 0-17.344 8-34.016 24-50.016-3.328 0-8.512 0-15.488 0s-12.192 0-15.488 0c-33.376 0-64.352-6.656-93.024-20zM230.016-15.008c0-6.016-0.352-11.648-0.992-16.992h-144c-20 0-37.856 6.496-53.504 19.488-15.68 12.992-25.504 29.152-29.504 48.512 12 14.016 27.808 24.992 47.488 32.992 19.648 8 40.512 11.648 62.496 11.008 15.328 0 30.016-2.336 44-7.008 3.328-2.016 8.512-5.344 15.488-10.016s11.808-8 14.496-10.016c2.656-2.016 6.496-4.832 11.488-8.512s8.672-6.848 11.008-9.504c2.304-2.688 4.992-5.664 8-8.992s5.344-6.848 7.008-10.496 3.168-7.488 4.512-11.488c1.312-6.624 2.016-12.96 2.016-18.976zM20 308.992c-4 30.016 0.8 55.168 14.496 75.52 13.664 20.352 32 30.144 55.008 29.504s44-11.648 63.008-32.992 30.496-47.040 34.496-77.024-0.864-55.488-14.496-76.512c-13.696-20.992-32-31.168-55.008-30.496s-44 12-63.008 34.016-30.496 48-34.496 77.984z" />
<glyph unicode="&#xe67f;" glyph-name="gauge" d="M93.44 330.656l-24.576-20.608-41.12 49.056 24.512 20.576 41.184-49.024zM156.128 433.216l-30.112-10.976 21.952-60.128 30.048 10.944-21.888 60.16zM484.256 359.136l-24.576 20.576-41.12-49.024 24.512-20.608 41.184 49.056zM385.952 422.24l-30.048 10.976-21.888-60.16 30.048-10.944 21.888 60.128zM291.872 184.928l-35.872 263.072-35.872-263.072c-35.232-14.24-60.128-48.608-60.128-88.928 0-53.024 42.976-96 96-96s96 42.976 96 96c0 40.32-24.896 74.688-60.128 88.928zM256 144c-26.496 0-48-21.504-48-48s21.504-48 48-48 48 21.504 48 48-21.504 48-48 48z" />
<glyph unicode="&#xe680;" glyph-name="fullscreen" d="M96 224h-64v224h224v-64h-160v-160zM290.496 448l66.048-66.048-68.544-68.512 57.408-57.44 68.544 68.544 66.048-66.048v189.504h-189.504zM416 64h-160v-64h224v224h-64v-160zM221.504 0l-66.048 66.048 68.544 68.512-57.408 57.44-68.544-68.544-66.048 66.048v-189.504h189.504z" />
<glyph unicode="&#xe681;" glyph-name="fotomoto" d="M480 384c0 35.328-28.672 64-64 64h-320c-35.328 0-64-28.672-64-64v-320c0-35.328 28.672-64 64-64h320c35.328 0 64 28.672 64 64v320zM160 192v-95.296c0-18.048-14.304-32.704-32-32.704s-32 14.656-32 32.704c0 0 0 255.168 0 255.296 0 19.008 11.008 32 30.656 32 0.128 0 0.224-0.064 0.352-0.064s254.976 0.064 254.976 0.064c18.048 0 32.672-14.304 32.672-32 0-17.664-14.624-32-32.672-32h-221.984v-64h189.984c18.048 0 32.672-14.304 32.672-32 0-17.664-14.624-32-32.672-32h-189.984zM382.592 63.52c-17.984 0-32.544 14.56-32.544 32.544s14.56 32.544 32.544 32.544 32.544-14.56 32.544-32.544-14.56-32.544-32.544-32.544z" />
<glyph unicode="&#xe682;" glyph-name="forward" d="M32 256h325.504l-158.4 158.4 45.248 45.248 235.648-235.648-235.648-235.648-45.248 45.28 158.368 158.368h-325.472z" />
<glyph unicode="&#xe683;" glyph-name="form" d="M429.696 480h-347.392c-45.504 0-82.304-36.8-82.304-82.272v-347.424c0-45.472 36.8-82.304 82.304-82.304h347.36c45.472 0 82.336 36.832 82.336 82.272v347.456c0 45.472-36.864 82.272-82.304 82.272zM416 64h-320v96h320v-96zM416 224h-320v64h320v-64zM416 320h-320v64h320v-64zM320 96h-128v32h128v-32z" />
<glyph unicode="&#xe684;" glyph-name="footer" d="M424.32 448h-336.64c-30.816 0-55.68-24.672-55.68-55.424v-336.672c0-30.72 24.864-55.904 55.68-55.904h336.64c30.752 0 55.68 25.184 55.68 55.936v336.64c0 30.752-24.928 55.424-55.68 55.424zM448 160h-384v221.056c0 19.424 15.744 34.944 35.2 34.944h313.6c19.456 0 35.2-15.52 35.2-34.944v-221.056z" />
<glyph unicode="&#xe685;" glyph-name="folder-refresh" horiz-adv-x="544" d="M256 192l49.632 48.672c21.856-17.344 49.728-27.68 79.808-27.68 63.36 0 116.352 43.008 126.528 107.008h-43.776c-9.504-42.656-42.592-64.32-82.304-64.32-18.304 0-35.168 6.016-49.024 15.776l48.384 48.544h-129.248v-128zM512 480l-49.056-48.928c-21.984 17.44-49.632 28.16-79.904 28.16-63.904 0-116.768-46.432-127.040-107.232h44.096c9.6 36.896 42.944 64.352 82.944 64.352 18.432 0 35.424-5.92 49.408-15.744l-48.736-48.608h128.288v128zM452.576 192h0.576l-20.96-115.328c-3.456-24.672-26.176-44.672-50.752-44.672 0 0-283.936 0-305.44 0-29.504 0-43.968 16.512-43.968 46.496l-0.032 227.168c0 20.832 14.976 35.808 32 42.848v21.472c0.96 25.696 23.168 46.016 48.8 46.016h68.288c25.664 0 43.904-20.32 42.912-46.016v-81.984h-68.512c-12.992 0-24.48-9.504-27.488-25.504l-32.256-163.296c-2.72-19.52-15.168-35.2-33.728-35.2h297.888c19.424 0 37.44 15.68 40.128 35.2l15.808 80.032c12.96 2.624 25.12 7.2 36.736 12.768z" />
<glyph unicode="&#xe686;" glyph-name="folder-remove" d="M384 479.968c70.688 0 128-57.312 128-128s-57.312-128-128-128-128 57.312-128 128 57.312 128 128 128zM419.328 196.192l-19.328-96.992c-2.688-19.488-20.672-35.2-40.128-35.2h-297.856c18.56 0 31.040 15.68 33.76 35.2l32.224 163.296c3.008 16 14.496 25.504 27.488 25.504h82.016c-8.608 19.616-13.504 41.184-13.504 63.968v18.016c0.992 25.696-17.248 46.016-42.912 46.016h-68.288c-25.632 0-47.84-20.32-48.8-46.016v-21.504c-17.024-7.040-32-22.016-32-42.848l0.032-227.168c0-29.952 14.464-46.464 43.968-46.464 21.504 0 305.44 0 305.44 0 24.576 0 47.328 20 50.752 44.672l24.768 133.664c-11.84-6.112-24.288-11.136-37.632-14.144zM448 384h-128v-64h128v64z" />
<glyph unicode="&#xe687;" glyph-name="folder-lock" d="M256 159.968v192l32 0.96v31.008c0 53.024 43.008 95.968 96 95.968s96-42.944 96-95.968l0.512-32.512 31.488 0.544v-192h-256zM352 223.968h64v64h-64v-64zM448 387.296c0 35.456-28.544 60.864-64 60.864s-64-28.704-64-64.192v-32h128v35.328zM437.728 128l-5.728-28.8c-2.688-19.488-20.672-35.2-40.128-35.2h-329.856c18.56 0 31.040 15.68 33.76 35.2l32.224 163.36c3.008 16 14.496 25.44 27.488 25.44h68.512v81.984c0.992 25.696-17.248 46.016-42.912 46.016h-68.288c-25.632 0-47.84-20.32-48.8-46.016v-21.504c-17.024-7.040-32-22.016-32-42.848l0.032-227.168c0-29.952 14.464-46.464 43.968-46.464 21.504 0 337.44 0 337.44 0 24.576 0 47.328 20 50.752 44.672l9.344 51.328h-35.808z" />
<glyph unicode="&#xe688;" glyph-name="folder-add" d="M512 352v-64h-64v-64h-64v64h-64v64h64v64h64v-64h64zM400 99.2c-2.688-19.488-20.672-35.2-40.128-35.2h-297.856c18.56 0 31.040 15.712 33.76 35.2l32.224 163.296c3.008 16 14.496 25.504 27.488 25.504h132.512v64h-64v17.984c0.992 25.696-17.248 46.016-42.912 46.016h-68.288c-25.632 0-47.84-20.32-48.8-46.016v-21.504c-17.024-7.040-32-22.016-32-42.848l0.032-227.168c0-29.952 14.464-46.464 43.968-46.464 21.504 0 305.44 0 305.44 0 24.576 0 47.328 20 50.752 44.672l20.96 115.328h-34.816l-18.336-92.8z" />
<glyph unicode="&#xe689;" glyph-name="folder" d="M464.192 76.672c-3.456-24.672-26.176-44.672-50.752-44.672 0 0-315.936 0-337.44 0-29.504 0-43.968 16.512-43.968 46.496l-0.032 227.168c0 20.832 14.976 35.808 32 42.848v21.472c0.96 25.696 23.168 46.496 48.8 46.496h68.288c25.664 0 43.904-20.8 42.912-46.496v-17.888h180.448c20.576 0 36.96-13.6 42.368-32.128h8.096c28.384 0 48.16-23.008 44.192-51.456l-34.912-191.84zM442.016 288h-286.528c-12.992 0-24.48-9.504-27.488-25.504l-32.256-163.392c-2.72-19.488-15.2-35.328-33.76-35.328h329.888c19.424 0 37.44 15.808 40.128 35.328l32 161.92c3.008 16.96-5.984 26.976-21.984 26.976z" />
<glyph unicode="&#xe68a;" glyph-name="flip-vertical" d="M169.856-32l23.168 155.392 43.968-43.968c70.528 72.896 67.104 185.312-3.456 258.24l-44.16-44.064-24.128 154.4 154.464-24.096-42.688-42.656c94.976-96.928 98.496-248.544 3.52-345.376l44.672-44.704-155.36-23.168zM448 192h32v32h-32v-32zM384 192h32v32h-32v-32zM224 192h32v32h-32v-32zM160 192h32v32h-32v-32zM96 192h31.968v32h-31.968v-32zM32 192h32v32h-32v-32z" />
<glyph unicode="&#xe68b;" glyph-name="flip-horizontal" d="M0 310.144l155.392-23.168-44-43.936c72.928-70.528 185.312-67.104 258.272 3.456l-44.096 44.128 154.432 24.128-24.096-154.464-42.656 42.688c-96.896-94.976-248.512-98.496-345.376-3.52l-44.704-44.672-23.168 155.36zM224 32v-32h32v32h-32zM224 96v-32h32v32h-32zM224 256v-32h32v32h-32zM224 320v-32h32v32h-32zM224 384v-31.968h32v31.968h-32zM224 448v-32h32v32h-32z" />
<glyph unicode="&#xe68c;" glyph-name="flash" d="M429.696 480h-347.392c-45.504 0-82.304-36.8-82.304-82.272v-347.424c0-45.472 36.8-82.304 82.304-82.304h347.36c45.472 0 82.336 36.832 82.336 82.272v347.456c0 45.472-36.864 82.272-82.304 82.272zM416 332.576c0 0-31.168 1.824-59.296-19.84-28.128-21.632-27.456-51.2-27.456-51.2l54.752-0.736v-68.8h-93.024c0 0-4.672-45.632-47.936-88.896-43.296-43.264-83.040-54.304-115.040-54.304 0 21.632 0 41.088 0 73.568 0 0 60.64 2.592 95.552 88.672 31.008 76.448 51.872 140.608 97.28 166.56 45.44 25.984 95.168 23.808 95.168 23.808v-68.832z" />
<glyph unicode="&#xe68d;" glyph-name="flag" d="M352 393.984c-37.344 0-69.344 8.992-96 27.008s-58.656 27.008-96 27.008c-29.344 0-61.344-11.68-96-35.008v-412.992h64v188.8c10.976 2.88 21.696 4.832 32 4.832 37.344 0 69.344-8.992 96-27.008s58.656-27.008 96-27.008c28 0 60 12.32 96 36.992v253.376c-36-24-68-36-96-36z" />
<glyph unicode="&#xe68e;" glyph-name="first" d="M192 224l224-160v320l-224-160zM192 64h-96v320h96v-320z" />
<glyph unicode="&#xe68f;" glyph-name="filter-remove" d="M384 480c70.688 0 128-57.312 128-128s-57.312-128-128-128-128 57.312-128 128 57.312 128 128 128zM237.28 288.448c-83.84 2.752-149.28 23.296-149.28 48.48 0 24.288 60.384 44.256 139.52 48.224 2.24 10.592 5.568 20.768 9.792 30.496-114.944-3.584-205.312-39.648-205.312-83.648 0-13.12-0.128-28 27.872-56 0 0 100.128-98.016 132.128-126.016 0-56 0-90.016 0-90.016 0-15.392 29.952-27.968 64-27.968s64 12.576 64 28c0 0 0 62.016 0 90.016 0 8.992 33.728 25.248 52.672 43.168-60.704 4.384-112.256 41.952-135.392 95.264zM448 384h-128v-64h128v64z" />
<glyph unicode="&#xe690;" glyph-name="filter" d="M256 416c-123.712 0-224-37.632-224-84 0-13.12 0-28 28-56 0 0 86.016-98.016 132.288-126.016 0-56 0-90.016 0-90.016 0-15.392 29.632-27.968 63.712-27.968 34.048 0 63.68 12.576 63.68 28 0 0 0 62.016 0 90.016 46.304 28 132.32 126.016 132.32 126.016 28 27.968 28 42.848 28 55.968 0 46.368-100.32 84-224 84zM256 287.872c-92.768 0-168 22.016-168 49.056 0 27.136 75.232 49.056 168 49.056 92.8 0 168-21.952 168-49.056 0-27.040-75.2-49.056-168-49.056z" />
<glyph unicode="&#xe691;" glyph-name="fast-forward" d="M64 384l192-137.152v137.152l224-160-224-160v137.152l-192-137.152z" />
<glyph unicode="&#xe692;" glyph-name="fast-backward" d="M448 384l-192-137.152v137.152l-224-160 224-160v137.152l192-137.152z" />
<glyph unicode="&#xe693;" glyph-name="facebook" d="M487.008 455.008c16.64-16.704 24.992-36.672 24.992-60v-342.016c0-23.328-8.352-43.328-24.992-60-16.704-16.64-36.704-24.992-60-24.992h-342.016c-23.328 0-43.328 8.352-60 24.992-16.672 16.672-24.992 36.672-24.992 60v342.016c0 23.328 8.32 43.328 24.992 60 16.672 16.64 36.672 24.992 60 24.992h342.016c23.296 0 43.296-8.352 60-24.992zM416 264.992h-96v40c0 11.328 1.504 19.488 4.512 24.512s9.504 7.488 19.488 7.488h72v79.008h-88c-36.704 0-63.2-8.672-79.52-26.016-16.352-17.312-24.48-42.976-24.48-76.992v-48h-46.016v-72.992h46.016v-224h96v224h83.008l12.992 72.992z" />
<glyph unicode="&#xe694;" glyph-name="external" d="M438.624 362.336l-135.488-135.52-45.28 45.248 135.52 135.52-72.384 72.416h191.008v-191.008l-73.376 73.344zM96 320v-224h256v95.264l64 64v-223.264h-384v352h255.424l-64-64h-127.424z" />
<glyph unicode="&#xe695;" glyph-name="expand" d="M118.624 64h137.376v-32h-192v192h32v-137.376l111.2 111.232 22.624-22.624-111.2-111.232zM282.176 272.8l22.624-22.624 111.2 111.2v-137.376h32v192h-192v-32h137.376l-111.2-111.2z" />
<glyph unicode="&#xe696;" glyph-name="exclude" d="M256 448c-123.712 0-224-100.288-224-224 0-123.68 100.288-224 224-224s224 100.32 224 224c0 123.712-100.288 224-224 224zM384 192h-256v64h256v-64z" />
<glyph unicode="&#xe697;" glyph-name="exchange" d="M66.88 256c15.264 90.752 93.984 160 189.12 160 45.088 0 86.208-16 118.976-42.016l73.024 73.024v-191.008h-191.008l72.544 72.544c-20.8 14.72-46.112 23.456-73.536 23.456-59.552 0-109.184-40.896-123.456-96h-65.664zM382.336 192c-14.272-64-63.904-96.512-123.456-96.512-27.424 0-52.736 8.992-73.536 23.712l72.544 72.8h-193.888v-192l74.464 73.024c32.736-26.016 74.592-41.536 119.68-41.536 95.136 0 174.56 64.512 189.856 160.512h-65.664z" />
<glyph unicode="&#xe698;" glyph-name="email" d="M480 55.68c0-30.752-24.928-55.68-55.68-55.68h-336.64c-30.784 0-55.68 24.928-55.68 55.68v204.064c0 12.992 6.656 20.992 20.736 31.808l152.928 109.632c27.552 19.744 72.32 19.744 99.872 0l152.864-109.632c12.416-8.864 21.6-18.816 21.6-31.808v-204.064zM447.712 248.672l-143.168-89.824c-27.040-16.96-70.816-16.96-97.856 0l-142.4 89.344-0.288 0.48v-181.472c0-19.456 15.744-35.2 35.2-35.2h313.6c19.424 0 35.2 15.744 35.2 35.2v181.984l-0.288-0.512z" />
<glyph unicode="&#xe699;" glyph-name="eject" d="M256 416l192-224h-384l192 224zM448 32v96h-384v-96h384z" />
<glyph unicode="&#xe69a;" glyph-name="effect" d="M462.048 116.736c11.552 28.192 18.112 58.976 18.112 91.328 0 40.608-10.976 78.24-28.672 111.808-17.824 45.824-53.984 82.112-99.648 100-33.504 17.888-71.168 28.896-111.712 28.896-32.064 0-62.56-6.56-90.496-18.016 38.176 30.368 85.888 49.248 138.496 49.248 123.616 0 223.872-100.224 223.872-223.872 0-52.992-19.2-101.056-49.952-139.392zM448.032 208.128c0-114.816-93.088-207.872-207.904-207.872s-207.872 93.056-207.872 207.872 93.056 207.904 207.872 207.904 207.904-93.088 207.904-207.904zM80.384 208.128c0-88.448 71.52-160.128 159.744-160.128s159.744 71.68 159.744 160.128c0 88.48-71.52 160.192-159.744 160.192s-159.744-71.712-159.744-160.192z" />
<glyph unicode="&#xe69b;" glyph-name="edit" d="M501.28 340.064l-129.12 129.248c-14.304 14.24-37.408 14.24-51.712 0l-208.896-209.024c-7.52-7.52-17.792-25.152-19.616-36.576-0.064-0.544-0.096-1.056-0.096-1.568l-27.392-150.624c-3.808-20.48 17.12-42.912 39.104-39.104l149.792 27.392c0.224 0 0.416 0.064 0.64 0.064 14.272 3.168 30.464 11.424 38.464 19.488l208.864 208.96c14.24 14.336 14.24 37.504-0.032 51.744zM169.568 73.536l-62.816 62.144 18.272 92.064 135.84-135.936-91.296-18.272z" />
<glyph unicode="&#xe69c;" glyph-name="earth" d="M256 447.936c-123.552 0-223.744-100.256-223.744-223.936 0-123.648 100.192-223.936 223.744-223.936s223.744 100.288 223.744 223.936c0 123.68-100.192 223.936-223.744 223.936zM377.632 88.192c-9.344-6.272-2.72 2.176 2.464 19.616 5.184 17.408 2.816 25.408 11.776 44.288 8.96 18.848-1.792 14.016-7.072 22.080-5.312 8.128 8.8 28.064-13.664 23.104-22.432-4.928-37.216-12.704-48.512 2.848s-13.664 28.256-13.184 42.4c0.48 14.112 3.776 17.888 11.776 30.592 8 12.736 1.312 21.92 13.12 24.64 11.84 2.688 17.472 9.792 25.024 8.832 7.52-0.928 9.472-7.2 20.992-10.912s4.928 5.728 15.744 3.84c10.816-1.92 15.072 0 10.368 8.48-4.672 8.448-4.928-2.464-12.352 4.16-7.424 6.688-7.424-4.64-13.536 2.912s-22.624 16.96-12.704 8.48c9.888-8.48 9.408-15.008 3.296-15.52s0 5.664-7.072 11.296c-7.072 5.664-12.704 8.032-16.96 3.328s-0.96-7.040-3.776-13.184c-2.816-6.112-5.632-6.112-14.112-8.512-8.48-2.304-10.368 1.44-9.888 9.408 0.48 8.032-5.664 11.36 3.744 11.36s10.368 6.048 3.296 9.408c-7.040 3.296-6.112 4.224-0.48 9.376 5.664 5.216 6.592 6.624-1.408 4.256-8-2.336-7.072-2.848-8.96 4.256-1.856 7.040-12.832 11.648-6.656 13.312 6.176 1.728 10.912-8.192 15.136-10.528 4.224-2.368 6.112-3.776 4.704 3.776-1.408 7.52-0.48 14.112-6.592 9.856-6.112-4.224-13.632 0.512-10.816 7.552 2.816 7.104-6.592 15.52 3.296 16.928 9.92 1.44 25.92-4.128 17.696 0.544-8.256 4.672-20.032 11.296-29.952 12.224-9.888 0.928-7.040-5.696-12.704-6.592-5.664-0.96-11.328 6.592-19.328 6.080-8-0.448-1.408-9.408-1.408-16s-6.368-5.184-15.68-10.112c-9.28-4.928-8.8-14.848-16.352-12.928-7.52 1.824-9.888 0.928-7.52 11.264 2.336 10.336 8.512 18.208 2.624 20.928-5.952 2.624-16.288 4.512-17.728-3.488-1.408-8.032 5.184-13.184-3.296-16-8.448-2.848-17.344-3.488-12.672 2.944 4.672 6.464 7.072 11.168 1.408 7.872-5.664-3.328-2.368 1.408 5.152 7.072s15.552 14.112 1.376 8.032c-14.080-6.144-7.968-10.4-16.448-17.44-8.448-7.072-26.368-8.48-26.368-15.552 0-13.28 13.184-10.4 26.368 1.856 13.216 12.256 16.64-16.672 16.096-24.128-0.544-7.392 2.752-16.832-1.952-16.832s-16 15.072-21.696 9.92c-5.632-5.184 5.664-17.888-8-16.48-13.632 1.376-26.528-4.224-30.208-14.4-3.712-10.112-12.736-6.88-17.184-15.104-4.416-8.224-3.936-27.040-8.672-12.448-4.704 14.592-23.52 15.52-25.856-3.808-2.368-19.296-1.92-22.592 4.704-18.336 6.592 4.224 5.184-3.296 6.112-12.704 0.96-9.408-4.704-18.336 6.592-26.336 11.296-8.064 16.96 3.712 31.072-1.44 14.112-5.216 24.96-24.64 39.584-25.472 16.48-0.928 16.96-20.736 30.144-26.88s31.52-4.672 37.696-14.592c6.080-9.888-14.144-28.224-17.92-48.032-3.776-19.776-17.408-2.848-24.928-19.328-7.552-16.48-20.8-4.672-21.472-16-0.672-11.296 21.472-27.776-0.224-19.296-21.664 8.48-23.552 15.52-31.552 36.256s-2.368 30.592-19.776 44.32c-17.44 13.632-26.4 35.776-24.992 50.816 1.408 15.136 12.736 15.136 8.96 25.44-3.776 10.368-7.552 7.072-14.144 14.176-6.592 7.072-2.784 14.624-11.744 22.144-8.992 7.52-7.776 12.864-10.976 22.656-3.168 9.792 0.192 21.696 2.752 26.816s-8.768-8.992 0.672 10.304c9.44 19.328 11.296 30.176 37.216 57.984 25.92 27.744 71.584 51.328 119.648 55.52 48.032 4.256 93.504-14.112 124.448-35.296 30.976-21.216 61.6-57.504 71.488-102.752 9.92-45.184 5.664-88.544-5.184-119.616-10.816-31.040-43.584-63.232-52.864-69.504zM306.88 343.744c-3.296-1.696-5.792 5.216-1.376 7.584s8.704-3.808 1.376-7.584zM137.984 242.528c-5.6-0.864-7.072 4.736-0.48 4.224 6.592-0.48 6.592-3.296 0.48-4.224zM123.36 255.264c-4.672 3.328-3.264 6.56-8.448 8.928s-6.144 8.992 1.664 3.328c7.744-5.696 13.408-16.992 6.784-12.256zM228.896 35.264c-10.848 2.336-20.256 9.44-5.184 7.072 15.072-2.336 17.44-4.672 25.44-5.184 8-0.48 13.664 0.928 29.184 2.848 15.552 1.92 10.144 3.2 25.088 5.568 14.944 2.464 28.16 0.096 16.384-5.088s-18.368-7.52-35.328-8c-16.96-0.512-35.808-1.472-55.584 2.784zM281.184 374.4c-6.88-1.92-10.368 6.112-3.776 5.184s8.96-3.744 3.776-5.184z" />
<glyph unicode="&#xe69d;" glyph-name="drop-up" d="M256 234.656l81.792-81.76 30.208 30.24-112 111.968-112-111.968 30.24-30.208 81.76 81.728z" />
<glyph unicode="&#xe69e;" glyph-name="drop-right" d="M216.896 142.24l30.24-30.24 111.968 112-111.968 112-30.24-30.208 81.76-81.792-81.76-81.76z" />
<glyph unicode="&#xe69f;" glyph-name="drop-left" d="M213.344 224l81.76 81.792-30.24 30.208-111.968-112 111.968-112 30.208 30.24-81.728 81.76z" />
<glyph unicode="&#xe6a0;" glyph-name="drop-down" d="M174.24 295.104l-30.24-30.24 112-111.968 112 111.968-30.208 30.208-81.792-81.728-81.76 81.76z" />
<glyph unicode="&#xe6a1;" glyph-name="download" d="M512 224v-128l-256-96-256 96v128l140 52 36-36-131.008-48 211.008-79.008 211.008 79.008-131.008 48 36 36 140-52zM128 352h96v128h64v-128h96l-128-128-128 128z" />
<glyph unicode="&#xe6a2;" glyph-name="documents" d="M384 320l-128 128h-192v-384h320v256zM256 399.488l80.512-79.488h-80.512v79.488zM352 96h-256v320h128v-128h128v-192zM448 416v-416h-352v32h320v352h-47.424l-32.064 32h111.488z" />
<glyph unicode="&#xe6a3;" glyph-name="document-remove" d="M384 192v-128h-256v288h96v32h-128v-352h320v160h-32zM512 351.968c0-70.72-57.312-128.032-128.032-128.032s-128.032 57.312-128.032 128.032 57.312 128.032 128.032 128.032 128.032-57.312 128.032-128.032zM448 384h-128v-64h128v64z" />
<glyph unicode="&#xe6a4;" glyph-name="document-add" d="M512 320h-96v-96h-64v96h-96v64h96v96h64v-96h96v-64zM384 192v-128h-256v288h96v32h-128v-352h320v160h-32z" />
<glyph unicode="&#xe6a5;" glyph-name="document" d="M288 416h-192v-384h320v256l-128 128zM288 369.504l81.504-81.504h-81.504v81.504zM384 64h-256v320h128v-128h128v-192z" />
<glyph unicode="&#xe6a6;" glyph-name="desktop" d="M288 64v-32h96v-32h-256v32h96v32h-224v384h512v-384h-224zM64 128h384v256h-384v-256z" />
<glyph unicode="&#xe6a7;" glyph-name="design" d="M480 392.32c0 30.752-24.928 55.68-55.68 55.68h-336.64c-30.752 0-55.68-24.928-55.68-55.68v-336.64c0-30.752 24.928-55.68 55.68-55.68h336.64c30.752 0 55.68 24.928 55.68 55.68v336.64zM448 224h-192v-192h-154.816c-19.424 0-37.184 15.776-37.184 35.2v156.8h192v192h158.816c19.424 0 33.184-15.776 33.184-35.2v-156.8z" />
<glyph unicode="&#xe6a8;" glyph-name="css" d="M176 245.984c2.24 6.272 3.36 15.136 3.36 26.656v49.472c0 6.816 1.504 12 4.512 15.488 1.824 2.336 6.336 3.84 13.504 4.512s12.992 3.392 17.504 8.256c4.48 4.832 6.752 10.688 6.752 17.504 0 7.328-2.56 13.504-7.616 18.496s-11.648 7.52-19.648 7.52c-17.504 0-32.928-6.688-46.24-20.128s-20-29.312-20-47.648v-53.472c0-7.008-1.408-12.16-4.256-15.488-1.664-2.208-6.368-3.744-14.112-4.64-7.744-0.928-13.696-3.648-17.76-8.128-4.096-4.512-6.112-10.496-6.112-18.016 0-7.328 2.016-13.248 6.112-17.76 4.064-4.512 9.952-7.232 17.632-8.128 7.68-0.928 12.672-2.72 15.008-5.376 2.304-2.656 3.488-7.584 3.488-14.72v-58.24c0-11.488 2.4-21.568 7.264-30.24 7.68-13.344 16.672-22.944 27.008-28.864s21.088-8.864 32.256-8.864c7.84 0 14.304 2.496 19.36 7.488s7.616 11.168 7.616 18.496c0 7.008-2.24 12.928-6.752 17.76s-10.24 7.552-17.248 8.128c-7.008 0.608-11.808 2.336-14.368 5.248-2.592 2.912-3.872 7.808-3.872 14.624v49.44c0 14.336-1.088 24.704-3.264 31.136s-6.24 13.024-12.256 19.872c5.824 6.848 9.888 13.376 12.128 19.616zM335.744 206.368c-2.080-6.336-3.136-16.672-3.136-31.008v-49.504c0-6.816-1.504-12-4.512-15.488-1.856-2.336-6.336-3.84-13.504-4.512s-12.992-3.392-17.504-8.256c-4.512-4.832-6.752-10.656-6.752-17.504 0-7.328 2.528-13.504 7.616-18.496s11.616-7.488 19.616-7.488c17.504 0 32.928 6.688 46.24 20.128s20 29.376 20 47.872v58.24c0 7.008 1.408 12.16 4.256 15.488 1.664 2.144 6.368 3.712 14.112 4.64 7.744 0.896 13.664 3.616 17.76 8.128 4.064 4.512 6.112 10.432 6.112 17.76 0 7.488-2.048 13.504-6.112 18.016-4.096 4.512-9.984 7.168-17.632 8-7.68 0.832-12.672 2.624-15.008 5.376s-3.488 7.712-3.488 14.88v53.472c0 11.328-2.432 21.344-7.264 30.016-7.68 13.344-16.672 22.944-27.008 28.864s-21.088 8.864-32.256 8.864c-7.84 0-14.304-2.496-19.36-7.488-5.024-4.992-7.552-11.168-7.552-18.496 0-6.816 2.24-12.672 6.752-17.504s10.24-7.584 17.248-8.256 11.776-2.464 14.368-5.376c2.592-2.912 3.872-7.808 3.872-14.624v-49.472c0-11.168 1.12-19.968 3.36-26.368s6.272-13.056 12.128-19.872c-6.144-7.040-10.272-13.696-12.352-20.032z" />
<glyph unicode="&#xe6a9;" glyph-name="cursor" d="M273.152-6.72l-53.344 111.968-91.808-44.32v388.64l301.76-244.576-90.912-43.52 54.72-110.176-120.416-58.016zM234.88 148.064l53.344-112.032 62.272 30.016-54.784 110.304 74.528 35.648-210.24 170.432v-270.496l74.88 36.128z" />
<glyph unicode="&#xe6aa;" glyph-name="crop" d="M448 64v64h32v-64h-32zM448 448h32v-32h-32v32zM352 320h-160v64h224v-384h-64v320zM256 224v-32h-32v32h32zM320 288v-32h-32v32h32zM192 128h128v-64h-224v384h64v-288h32v-32zM32 384h32v-64h-32v64z" />
</font>
</defs>
</svg>
